<?xml version="1.0" standalone="no"?>
<!DOCTYPE svg PUBLIC "-//W3C//DTD SVG 1.1//EN" "http://www.w3.org/Graphics/SVG/1.1/DTD/svg11.dtd" >
<svg xmlns="http://www.w3.org/2000/svg">
<metadata></metadata>
<defs>
<font id="redacted_scriptbold" horiz-adv-x="1206" >
<font-face units-per-em="2048" ascent="1638" descent="-410" />
<missing-glyph horiz-adv-x="995" />
<glyph horiz-adv-x="2048" />
<glyph horiz-adv-x="2048" />
<glyph unicode="&#xd;" horiz-adv-x="2048" />
<glyph unicode=" "  horiz-adv-x="995" />
<glyph unicode="&#x09;" horiz-adv-x="995" />
<glyph unicode="&#xa0;" horiz-adv-x="995" />
<glyph unicode="!" horiz-adv-x="1089" d="M-225 389q0 49 21.5 93t58.5 79q10 10 37.5 39t50.5 57l41 45q29 31 58.5 63t57.5 60q33 29 57.5 49.5t43.5 32.5q106 66 221 41q119 -31 158 -133l-2 2q8 -18 13 -35.5t7 -36.5q29 31 51.5 58.5t40.5 50.5l29 33q4 4 6 8q2 2 4 6q47 55 111.5 79t130.5 7q45 -12 83 -45 t62 -76q29 -66 26 -111.5t-7 -62.5q-2 -10 -5.5 -19t-5.5 -18l-12 -39l-2 -6q41 -4 81 -22.5t69 -50.5q27 -33 40 -72t13 -76q0 -102 -84 -174l-10 -10q-43 -37 -91.5 -74t-101.5 -70q-121 -72 -238 -71q-49 0 -98 14q-37 8 -68.5 27.5t-54.5 48.5q-25 -20 -47 -37.5 t-51 -36.5h2q-47 -33 -90 -55.5t-82 -38.5q-35 -14 -73.5 -20.5t-73.5 -6.5q-23 0 -42.5 1t-29.5 3q-57 16 -102.5 52t-67.5 88q-14 29 -18.5 52t-4.5 48q0 33 7 64l-39 26t-31 31q-49 66 -49 139z" />
<glyph unicode="&#x22;" horiz-adv-x="1089" d="M-225 389q0 49 21.5 93t58.5 79q10 10 37.5 39t50.5 57l41 45q29 31 58.5 63t57.5 60q33 29 57.5 49.5t43.5 32.5q106 66 221 41q119 -31 158 -133l-2 2q8 -18 13 -35.5t7 -36.5q29 31 51.5 58.5t40.5 50.5l29 33q4 4 6 8q2 2 4 6q47 55 111.5 79t130.5 7q45 -12 83 -45 t62 -76q29 -66 26 -111.5t-7 -62.5q-2 -10 -5.5 -19t-5.5 -18l-12 -39l-2 -6q41 -4 81 -22.5t69 -50.5q27 -33 40 -72t13 -76q0 -102 -84 -174l-10 -10q-43 -37 -91.5 -74t-101.5 -70q-121 -72 -238 -71q-49 0 -98 14q-37 8 -68.5 27.5t-54.5 48.5q-25 -20 -47 -37.5 t-51 -36.5h2q-47 -33 -90 -55.5t-82 -38.5q-35 -14 -73.5 -20.5t-73.5 -6.5q-23 0 -42.5 1t-29.5 3q-57 16 -102.5 52t-67.5 88q-14 29 -18.5 52t-4.5 48q0 33 7 64l-39 26t-31 31q-49 66 -49 139z" />
<glyph unicode="#" horiz-adv-x="1089" d="M-225 389q0 49 21.5 93t58.5 79q10 10 37.5 39t50.5 57l41 45q29 31 58.5 63t57.5 60q33 29 57.5 49.5t43.5 32.5q106 66 221 41q119 -31 158 -133l-2 2q8 -18 13 -35.5t7 -36.5q29 31 51.5 58.5t40.5 50.5l29 33q4 4 6 8q2 2 4 6q47 55 111.5 79t130.5 7q45 -12 83 -45 t62 -76q29 -66 26 -111.5t-7 -62.5q-2 -10 -5.5 -19t-5.5 -18l-12 -39l-2 -6q41 -4 81 -22.5t69 -50.5q27 -33 40 -72t13 -76q0 -102 -84 -174l-10 -10q-43 -37 -91.5 -74t-101.5 -70q-121 -72 -238 -71q-49 0 -98 14q-37 8 -68.5 27.5t-54.5 48.5q-25 -20 -47 -37.5 t-51 -36.5h2q-47 -33 -90 -55.5t-82 -38.5q-35 -14 -73.5 -20.5t-73.5 -6.5q-23 0 -42.5 1t-29.5 3q-57 16 -102.5 52t-67.5 88q-14 29 -18.5 52t-4.5 48q0 33 7 64l-39 26t-31 31q-49 66 -49 139z" />
<glyph unicode="$" horiz-adv-x="1089" d="M-225 389q0 49 21.5 93t58.5 79q10 10 37.5 39t50.5 57l41 45q29 31 58.5 63t57.5 60q33 29 57.5 49.5t43.5 32.5q106 66 221 41q119 -31 158 -133l-2 2q8 -18 13 -35.5t7 -36.5q29 31 51.5 58.5t40.5 50.5l29 33q4 4 6 8q2 2 4 6q47 55 111.5 79t130.5 7q45 -12 83 -45 t62 -76q29 -66 26 -111.5t-7 -62.5q-2 -10 -5.5 -19t-5.5 -18l-12 -39l-2 -6q41 -4 81 -22.5t69 -50.5q27 -33 40 -72t13 -76q0 -102 -84 -174l-10 -10q-43 -37 -91.5 -74t-101.5 -70q-121 -72 -238 -71q-49 0 -98 14q-37 8 -68.5 27.5t-54.5 48.5q-25 -20 -47 -37.5 t-51 -36.5h2q-47 -33 -90 -55.5t-82 -38.5q-35 -14 -73.5 -20.5t-73.5 -6.5q-23 0 -42.5 1t-29.5 3q-57 16 -102.5 52t-67.5 88q-14 29 -18.5 52t-4.5 48q0 33 7 64l-39 26t-31 31q-49 66 -49 139z" />
<glyph unicode="%" horiz-adv-x="1089" d="M-225 389q0 49 21.5 93t58.5 79q10 10 37.5 39t50.5 57l41 45q29 31 58.5 63t57.5 60q33 29 57.5 49.5t43.5 32.5q106 66 221 41q119 -31 158 -133l-2 2q8 -18 13 -35.5t7 -36.5q29 31 51.5 58.5t40.5 50.5l29 33q4 4 6 8q2 2 4 6q47 55 111.5 79t130.5 7q45 -12 83 -45 t62 -76q29 -66 26 -111.5t-7 -62.5q-2 -10 -5.5 -19t-5.5 -18l-12 -39l-2 -6q41 -4 81 -22.5t69 -50.5q27 -33 40 -72t13 -76q0 -102 -84 -174l-10 -10q-43 -37 -91.5 -74t-101.5 -70q-121 -72 -238 -71q-49 0 -98 14q-37 8 -68.5 27.5t-54.5 48.5q-25 -20 -47 -37.5 t-51 -36.5h2q-47 -33 -90 -55.5t-82 -38.5q-35 -14 -73.5 -20.5t-73.5 -6.5q-23 0 -42.5 1t-29.5 3q-57 16 -102.5 52t-67.5 88q-14 29 -18.5 52t-4.5 48q0 33 7 64l-39 26t-31 31q-49 66 -49 139z" />
<glyph unicode="&#x26;" horiz-adv-x="563" d="M-204 402q3 40 20.5 76t48.5 65q23 18 48.5 42.5t53.5 53.5q49 49 103.5 99t105.5 91q35 27 66.5 47.5t60.5 34.5q106 51 209 29q55 -16 97 -55t65 -94q29 -82 -2 -173q-4 -10 -8.5 -20t-10.5 -23q74 -35 107 -114q14 -41 12 -82t-18.5 -77t-46 -63.5t-70.5 -41.5 q-66 -25 -118 -44.5t-89 -31.5q-23 -8 -39 -14.5t-26 -10.5q-20 -4 -43 -10t-50 -6q-25 0 -55 6q-47 12 -84 42t-59 71q-57 -23 -120 -9.5t-108 64.5q-29 31 -41 69.5t-9 78.5z" />
<glyph unicode="'" horiz-adv-x="563" d="M-204 402q3 40 20.5 76t48.5 65q23 18 48.5 42.5t53.5 53.5q49 49 103.5 99t105.5 91q35 27 66.5 47.5t60.5 34.5q106 51 209 29q55 -16 97 -55t65 -94q29 -82 -2 -173q-4 -10 -8.5 -20t-10.5 -23q74 -35 107 -114q14 -41 12 -82t-18.5 -77t-46 -63.5t-70.5 -41.5 q-66 -25 -118 -44.5t-89 -31.5q-23 -8 -39 -14.5t-26 -10.5q-20 -4 -43 -10t-50 -6q-25 0 -55 6q-47 12 -84 42t-59 71q-57 -23 -120 -9.5t-108 64.5q-29 31 -41 69.5t-9 78.5z" />
<glyph unicode="(" horiz-adv-x="563" d="M-204 402q3 40 20.5 76t48.5 65q23 18 48.5 42.5t53.5 53.5q49 49 103.5 99t105.5 91q35 27 66.5 47.5t60.5 34.5q106 51 209 29q55 -16 97 -55t65 -94q29 -82 -2 -173q-4 -10 -8.5 -20t-10.5 -23q74 -35 107 -114q14 -41 12 -82t-18.5 -77t-46 -63.5t-70.5 -41.5 q-66 -25 -118 -44.5t-89 -31.5q-23 -8 -39 -14.5t-26 -10.5q-20 -4 -43 -10t-50 -6q-25 0 -55 6q-47 12 -84 42t-59 71q-57 -23 -120 -9.5t-108 64.5q-29 31 -41 69.5t-9 78.5z" />
<glyph unicode=")" horiz-adv-x="563" d="M-204 402q3 40 20.5 76t48.5 65q23 18 48.5 42.5t53.5 53.5q49 49 103.5 99t105.5 91q35 27 66.5 47.5t60.5 34.5q106 51 209 29q55 -16 97 -55t65 -94q29 -82 -2 -173q-4 -10 -8.5 -20t-10.5 -23q74 -35 107 -114q14 -41 12 -82t-18.5 -77t-46 -63.5t-70.5 -41.5 q-66 -25 -118 -44.5t-89 -31.5q-23 -8 -39 -14.5t-26 -10.5q-20 -4 -43 -10t-50 -6q-25 0 -55 6q-47 12 -84 42t-59 71q-57 -23 -120 -9.5t-108 64.5q-29 31 -41 69.5t-9 78.5z" />
<glyph unicode="*" horiz-adv-x="563" d="M-204 402q3 40 20.5 76t48.5 65q23 18 48.5 42.5t53.5 53.5q49 49 103.5 99t105.5 91q35 27 66.5 47.5t60.5 34.5q106 51 209 29q55 -16 97 -55t65 -94q29 -82 -2 -173q-4 -10 -8.5 -20t-10.5 -23q74 -35 107 -114q14 -41 12 -82t-18.5 -77t-46 -63.5t-70.5 -41.5 q-66 -25 -118 -44.5t-89 -31.5q-23 -8 -39 -14.5t-26 -10.5q-20 -4 -43 -10t-50 -6q-25 0 -55 6q-47 12 -84 42t-59 71q-57 -23 -120 -9.5t-108 64.5q-29 31 -41 69.5t-9 78.5z" />
<glyph unicode="+" horiz-adv-x="796" d="M-203.5 397q2.5 41 19 77t46 64.5t68.5 43.5q35 12 118 59t226 162q43 35 79 65.5t63 55.5q31 29 57 53q84 80 197 51q41 -10 73.5 -36.5t53.5 -61.5q33 -57 28.5 -116.5t-22.5 -137.5q-4 -20 -9.5 -40t-11.5 -42q66 4 121 -29t84 -94q16 -39 16.5 -79t-13 -76.5 t-41 -66.5t-66.5 -46q-68 -31 -124.5 -58.5t-98.5 -50t-66.5 -36t-26.5 -13.5q-49 -27 -98 -27q-76 0 -129 45q-49 39 -67.5 98.5t-2.5 119.5q0 2 2 6t2 6t2 6q-113 -68 -204 -102q-39 -14 -80 -12.5t-76 18t-63.5 46.5t-42.5 68q-16 39 -13.5 80z" />
<glyph unicode="," horiz-adv-x="491" />
<glyph unicode="-" horiz-adv-x="491" />
<glyph unicode="." horiz-adv-x="491" />
<glyph unicode="/" horiz-adv-x="796" d="M-203.5 397q2.5 41 19 77t46 64.5t68.5 43.5q35 12 118 59t226 162q43 35 79 65.5t63 55.5q31 29 57 53q84 80 197 51q41 -10 73.5 -36.5t53.5 -61.5q33 -57 28.5 -116.5t-22.5 -137.5q-4 -20 -9.5 -40t-11.5 -42q66 4 121 -29t84 -94q16 -39 16.5 -79t-13 -76.5 t-41 -66.5t-66.5 -46q-68 -31 -124.5 -58.5t-98.5 -50t-66.5 -36t-26.5 -13.5q-49 -27 -98 -27q-76 0 -129 45q-49 39 -67.5 98.5t-2.5 119.5q0 2 2 6t2 6t2 6q-113 -68 -204 -102q-39 -14 -80 -12.5t-76 18t-63.5 46.5t-42.5 68q-16 39 -13.5 80z" />
<glyph unicode="0" d="M-204.5 386q-0.5 40 14 77t42 66.5t66.5 45.5q47 23 115.5 61t146.5 83q90 53 189.5 109.5t195.5 97.5q109 53 203 71q66 16 122 18.5t109 -11.5q113 -33 154 -140q31 -78 9.5 -151.5t-56.5 -139.5q6 2 13 3.5t14 5.5q39 14 78.5 11t75.5 -19.5t63.5 -46t42.5 -68.5 q14 -41 12 -81t-18.5 -76t-46 -63.5t-70.5 -41.5q-96 -35 -176 -63t-142 -48q-86 -25 -139 -36t-96 -11q-29 0 -64 10q-51 12 -88 46t-55 81q-33 78 2 176q12 35 37 82q4 8 9 17.5t11 19.5q-47 -25 -92 -52.5t-92 -51.5q-84 -51 -161 -93.5t-142 -70.5q-39 -18 -79 -18.5 t-77 14t-66.5 42t-45.5 66.5q-18 39 -18.5 79z" />
<glyph unicode="1" d="M-204.5 386q-0.5 40 14 77t42 66.5t66.5 45.5q47 23 115.5 61t146.5 83q90 53 189.5 109.5t195.5 97.5q109 53 203 71q66 16 122 18.5t109 -11.5q113 -33 154 -140q31 -78 9.5 -151.5t-56.5 -139.5q6 2 13 3.5t14 5.5q39 14 78.5 11t75.5 -19.5t63.5 -46t42.5 -68.5 q14 -41 12 -81t-18.5 -76t-46 -63.5t-70.5 -41.5q-96 -35 -176 -63t-142 -48q-86 -25 -139 -36t-96 -11q-29 0 -64 10q-51 12 -88 46t-55 81q-33 78 2 176q12 35 37 82q4 8 9 17.5t11 19.5q-47 -25 -92 -52.5t-92 -51.5q-84 -51 -161 -93.5t-142 -70.5q-39 -18 -79 -18.5 t-77 14t-66.5 42t-45.5 66.5q-18 39 -18.5 79z" />
<glyph unicode="2" d="M-204.5 386q-0.5 40 14 77t42 66.5t66.5 45.5q47 23 115.5 61t146.5 83q90 53 189.5 109.5t195.5 97.5q109 53 203 71q66 16 122 18.5t109 -11.5q113 -33 154 -140q31 -78 9.5 -151.5t-56.5 -139.5q6 2 13 3.5t14 5.5q39 14 78.5 11t75.5 -19.5t63.5 -46t42.5 -68.5 q14 -41 12 -81t-18.5 -76t-46 -63.5t-70.5 -41.5q-96 -35 -176 -63t-142 -48q-86 -25 -139 -36t-96 -11q-29 0 -64 10q-51 12 -88 46t-55 81q-33 78 2 176q12 35 37 82q4 8 9 17.5t11 19.5q-47 -25 -92 -52.5t-92 -51.5q-84 -51 -161 -93.5t-142 -70.5q-39 -18 -79 -18.5 t-77 14t-66.5 42t-45.5 66.5q-18 39 -18.5 79z" />
<glyph unicode="3" d="M-204.5 386q-0.5 40 14 77t42 66.5t66.5 45.5q47 23 115.5 61t146.5 83q90 53 189.5 109.5t195.5 97.5q109 53 203 71q66 16 122 18.5t109 -11.5q113 -33 154 -140q31 -78 9.5 -151.5t-56.5 -139.5q6 2 13 3.5t14 5.5q39 14 78.5 11t75.5 -19.5t63.5 -46t42.5 -68.5 q14 -41 12 -81t-18.5 -76t-46 -63.5t-70.5 -41.5q-96 -35 -176 -63t-142 -48q-86 -25 -139 -36t-96 -11q-29 0 -64 10q-51 12 -88 46t-55 81q-33 78 2 176q12 35 37 82q4 8 9 17.5t11 19.5q-47 -25 -92 -52.5t-92 -51.5q-84 -51 -161 -93.5t-142 -70.5q-39 -18 -79 -18.5 t-77 14t-66.5 42t-45.5 66.5q-18 39 -18.5 79z" />
<glyph unicode="4" d="M-204.5 386q-0.5 40 14 77t42 66.5t66.5 45.5q47 23 115.5 61t146.5 83q90 53 189.5 109.5t195.5 97.5q109 53 203 71q66 16 122 18.5t109 -11.5q113 -33 154 -140q31 -78 9.5 -151.5t-56.5 -139.5q6 2 13 3.5t14 5.5q39 14 78.5 11t75.5 -19.5t63.5 -46t42.5 -68.5 q14 -41 12 -81t-18.5 -76t-46 -63.5t-70.5 -41.5q-96 -35 -176 -63t-142 -48q-86 -25 -139 -36t-96 -11q-29 0 -64 10q-51 12 -88 46t-55 81q-33 78 2 176q12 35 37 82q4 8 9 17.5t11 19.5q-47 -25 -92 -52.5t-92 -51.5q-84 -51 -161 -93.5t-142 -70.5q-39 -18 -79 -18.5 t-77 14t-66.5 42t-45.5 66.5q-18 39 -18.5 79z" />
<glyph unicode="5" horiz-adv-x="798" d="M-204 399q3 41 19.5 76t45 63.5t69.5 43.5q6 2 23.5 10t50.5 29.5t82 60.5t121 100q41 37 76.5 70t62.5 57.5t42 40t18 15.5q39 39 91 53t105 -2q88 -23 127 -103q12 -23 21.5 -63.5t-7.5 -93.5q0 -4 -2 -5t-2 -6q-2 -4 -3 -10t-3 -10q-4 -14 -11 -30.5t-15 -39.5 t-17.5 -49t-21.5 -55l8 4t8 6q35 23 75 30t77.5 -1t71.5 -30.5t57 -57.5q25 -35 32 -76t-1.5 -79t-31 -72.5t-57.5 -57.5q-49 -33 -93 -64.5t-89 -66.5q-51 -39 -95 -71.5t-89 -57.5q-33 -18 -61.5 -29.5t-57.5 -19.5q-45 -10 -82 -10t-78 10q-43 10 -77.5 37.5t-53.5 66.5 q-14 27 -19.5 51.5t-5.5 46t2.5 38t4.5 26.5t4 21.5t6 23.5q-14 -8 -26.5 -13t-26.5 -9q-35 -12 -70 -13q-63 0 -116.5 36t-76.5 99q-14 39 -11 80z" />
<glyph unicode="6" horiz-adv-x="798" d="M-204 399q3 41 19.5 76t45 63.5t69.5 43.5q6 2 23.5 10t50.5 29.5t82 60.5t121 100q41 37 76.5 70t62.5 57.5t42 40t18 15.5q39 39 91 53t105 -2q88 -23 127 -103q12 -23 21.5 -63.5t-7.5 -93.5q0 -4 -2 -5t-2 -6q-2 -4 -3 -10t-3 -10q-4 -14 -11 -30.5t-15 -39.5 t-17.5 -49t-21.5 -55l8 4t8 6q35 23 75 30t77.5 -1t71.5 -30.5t57 -57.5q25 -35 32 -76t-1.5 -79t-31 -72.5t-57.5 -57.5q-49 -33 -93 -64.5t-89 -66.5q-51 -39 -95 -71.5t-89 -57.5q-33 -18 -61.5 -29.5t-57.5 -19.5q-45 -10 -82 -10t-78 10q-43 10 -77.5 37.5t-53.5 66.5 q-14 27 -19.5 51.5t-5.5 46t2.5 38t4.5 26.5t4 21.5t6 23.5q-14 -8 -26.5 -13t-26.5 -9q-35 -12 -70 -13q-63 0 -116.5 36t-76.5 99q-14 39 -11 80z" />
<glyph unicode="7" horiz-adv-x="798" d="M-204 399q3 41 19.5 76t45 63.5t69.5 43.5q6 2 23.5 10t50.5 29.5t82 60.5t121 100q41 37 76.5 70t62.5 57.5t42 40t18 15.5q39 39 91 53t105 -2q88 -23 127 -103q12 -23 21.5 -63.5t-7.5 -93.5q0 -4 -2 -5t-2 -6q-2 -4 -3 -10t-3 -10q-4 -14 -11 -30.5t-15 -39.5 t-17.5 -49t-21.5 -55l8 4t8 6q35 23 75 30t77.5 -1t71.5 -30.5t57 -57.5q25 -35 32 -76t-1.5 -79t-31 -72.5t-57.5 -57.5q-49 -33 -93 -64.5t-89 -66.5q-51 -39 -95 -71.5t-89 -57.5q-33 -18 -61.5 -29.5t-57.5 -19.5q-45 -10 -82 -10t-78 10q-43 10 -77.5 37.5t-53.5 66.5 q-14 27 -19.5 51.5t-5.5 46t2.5 38t4.5 26.5t4 21.5t6 23.5q-14 -8 -26.5 -13t-26.5 -9q-35 -12 -70 -13q-63 0 -116.5 36t-76.5 99q-14 39 -11 80z" />
<glyph unicode="8" horiz-adv-x="798" d="M-204 399q3 41 19.5 76t45 63.5t69.5 43.5q6 2 23.5 10t50.5 29.5t82 60.5t121 100q41 37 76.5 70t62.5 57.5t42 40t18 15.5q39 39 91 53t105 -2q88 -23 127 -103q12 -23 21.5 -63.5t-7.5 -93.5q0 -4 -2 -5t-2 -6q-2 -4 -3 -10t-3 -10q-4 -14 -11 -30.5t-15 -39.5 t-17.5 -49t-21.5 -55l8 4t8 6q35 23 75 30t77.5 -1t71.5 -30.5t57 -57.5q25 -35 32 -76t-1.5 -79t-31 -72.5t-57.5 -57.5q-49 -33 -93 -64.5t-89 -66.5q-51 -39 -95 -71.5t-89 -57.5q-33 -18 -61.5 -29.5t-57.5 -19.5q-45 -10 -82 -10t-78 10q-43 10 -77.5 37.5t-53.5 66.5 q-14 27 -19.5 51.5t-5.5 46t2.5 38t4.5 26.5t4 21.5t6 23.5q-14 -8 -26.5 -13t-26.5 -9q-35 -12 -70 -13q-63 0 -116.5 36t-76.5 99q-14 39 -11 80z" />
<glyph unicode="9" horiz-adv-x="798" d="M-204 399q3 41 19.5 76t45 63.5t69.5 43.5q6 2 23.5 10t50.5 29.5t82 60.5t121 100q41 37 76.5 70t62.5 57.5t42 40t18 15.5q39 39 91 53t105 -2q88 -23 127 -103q12 -23 21.5 -63.5t-7.5 -93.5q0 -4 -2 -5t-2 -6q-2 -4 -3 -10t-3 -10q-4 -14 -11 -30.5t-15 -39.5 t-17.5 -49t-21.5 -55l8 4t8 6q35 23 75 30t77.5 -1t71.5 -30.5t57 -57.5q25 -35 32 -76t-1.5 -79t-31 -72.5t-57.5 -57.5q-49 -33 -93 -64.5t-89 -66.5q-51 -39 -95 -71.5t-89 -57.5q-33 -18 -61.5 -29.5t-57.5 -19.5q-45 -10 -82 -10t-78 10q-43 10 -77.5 37.5t-53.5 66.5 q-14 27 -19.5 51.5t-5.5 46t2.5 38t4.5 26.5t4 21.5t6 23.5q-14 -8 -26.5 -13t-26.5 -9q-35 -12 -70 -13q-63 0 -116.5 36t-76.5 99q-14 39 -11 80z" />
<glyph unicode=":" horiz-adv-x="798" d="M-204 399q3 41 19.5 76t45 63.5t69.5 43.5q6 2 23.5 10t50.5 29.5t82 60.5t121 100q41 37 76.5 70t62.5 57.5t42 40t18 15.5q39 39 91 53t105 -2q88 -23 127 -103q12 -23 21.5 -63.5t-7.5 -93.5q0 -4 -2 -5t-2 -6q-2 -4 -3 -10t-3 -10q-4 -14 -11 -30.5t-15 -39.5 t-17.5 -49t-21.5 -55l8 4t8 6q35 23 75 30t77.5 -1t71.5 -30.5t57 -57.5q25 -35 32 -76t-1.5 -79t-31 -72.5t-57.5 -57.5q-49 -33 -93 -64.5t-89 -66.5q-51 -39 -95 -71.5t-89 -57.5q-33 -18 -61.5 -29.5t-57.5 -19.5q-45 -10 -82 -10t-78 10q-43 10 -77.5 37.5t-53.5 66.5 q-14 27 -19.5 51.5t-5.5 46t2.5 38t4.5 26.5t4 21.5t6 23.5q-14 -8 -26.5 -13t-26.5 -9q-35 -12 -70 -13q-63 0 -116.5 36t-76.5 99q-14 39 -11 80z" />
<glyph unicode=";" horiz-adv-x="796" d="M-203.5 397q2.5 41 19 77t46 64.5t68.5 43.5q35 12 118 59t226 162q43 35 79 65.5t63 55.5q31 29 57 53q84 80 197 51q41 -10 73.5 -36.5t53.5 -61.5q33 -57 28.5 -116.5t-22.5 -137.5q-4 -20 -9.5 -40t-11.5 -42q66 4 121 -29t84 -94q16 -39 16.5 -79t-13 -76.5 t-41 -66.5t-66.5 -46q-68 -31 -124.5 -58.5t-98.5 -50t-66.5 -36t-26.5 -13.5q-49 -27 -98 -27q-76 0 -129 45q-49 39 -67.5 98.5t-2.5 119.5q0 2 2 6t2 6t2 6q-113 -68 -204 -102q-39 -14 -80 -12.5t-76 18t-63.5 46.5t-42.5 68q-16 39 -13.5 80z" />
<glyph unicode="&#x3c;" horiz-adv-x="798" d="M-204 399q3 41 19.5 76t45 63.5t69.5 43.5q6 2 23.5 10t50.5 29.5t82 60.5t121 100q41 37 76.5 70t62.5 57.5t42 40t18 15.5q39 39 91 53t105 -2q88 -23 127 -103q12 -23 21.5 -63.5t-7.5 -93.5q0 -4 -2 -5t-2 -6q-2 -4 -3 -10t-3 -10q-4 -14 -11 -30.5t-15 -39.5 t-17.5 -49t-21.5 -55l8 4t8 6q35 23 75 30t77.5 -1t71.5 -30.5t57 -57.5q25 -35 32 -76t-1.5 -79t-31 -72.5t-57.5 -57.5q-49 -33 -93 -64.5t-89 -66.5q-51 -39 -95 -71.5t-89 -57.5q-33 -18 -61.5 -29.5t-57.5 -19.5q-45 -10 -82 -10t-78 10q-43 10 -77.5 37.5t-53.5 66.5 q-14 27 -19.5 51.5t-5.5 46t2.5 38t4.5 26.5t4 21.5t6 23.5q-14 -8 -26.5 -13t-26.5 -9q-35 -12 -70 -13q-63 0 -116.5 36t-76.5 99q-14 39 -11 80z" />
<glyph unicode="=" d="M-204.5 386q-0.5 40 14 77t42 66.5t66.5 45.5q47 23 115.5 61t146.5 83q90 53 189.5 109.5t195.5 97.5q109 53 203 71q66 16 122 18.5t109 -11.5q113 -33 154 -140q31 -78 9.5 -151.5t-56.5 -139.5q6 2 13 3.5t14 5.5q39 14 78.5 11t75.5 -19.5t63.5 -46t42.5 -68.5 q14 -41 12 -81t-18.5 -76t-46 -63.5t-70.5 -41.5q-96 -35 -176 -63t-142 -48q-86 -25 -139 -36t-96 -11q-29 0 -64 10q-51 12 -88 46t-55 81q-33 78 2 176q12 35 37 82q4 8 9 17.5t11 19.5q-47 -25 -92 -52.5t-92 -51.5q-84 -51 -161 -93.5t-142 -70.5q-39 -18 -79 -18.5 t-77 14t-66.5 42t-45.5 66.5q-18 39 -18.5 79z" />
<glyph unicode="&#x3e;" horiz-adv-x="1089" d="M-225 389q0 49 21.5 93t58.5 79q10 10 37.5 39t50.5 57l41 45q29 31 58.5 63t57.5 60q33 29 57.5 49.5t43.5 32.5q106 66 221 41q119 -31 158 -133l-2 2q8 -18 13 -35.5t7 -36.5q29 31 51.5 58.5t40.5 50.5l29 33q4 4 6 8q2 2 4 6q47 55 111.5 79t130.5 7q45 -12 83 -45 t62 -76q29 -66 26 -111.5t-7 -62.5q-2 -10 -5.5 -19t-5.5 -18l-12 -39l-2 -6q41 -4 81 -22.5t69 -50.5q27 -33 40 -72t13 -76q0 -102 -84 -174l-10 -10q-43 -37 -91.5 -74t-101.5 -70q-121 -72 -238 -71q-49 0 -98 14q-37 8 -68.5 27.5t-54.5 48.5q-25 -20 -47 -37.5 t-51 -36.5h2q-47 -33 -90 -55.5t-82 -38.5q-35 -14 -73.5 -20.5t-73.5 -6.5q-23 0 -42.5 1t-29.5 3q-57 16 -102.5 52t-67.5 88q-14 29 -18.5 52t-4.5 48q0 33 7 64l-39 26t-31 31q-49 66 -49 139z" />
<glyph unicode="?" horiz-adv-x="1089" d="M-225 389q0 49 21.5 93t58.5 79q10 10 37.5 39t50.5 57l41 45q29 31 58.5 63t57.5 60q33 29 57.5 49.5t43.5 32.5q106 66 221 41q119 -31 158 -133l-2 2q8 -18 13 -35.5t7 -36.5q29 31 51.5 58.5t40.5 50.5l29 33q4 4 6 8q2 2 4 6q47 55 111.5 79t130.5 7q45 -12 83 -45 t62 -76q29 -66 26 -111.5t-7 -62.5q-2 -10 -5.5 -19t-5.5 -18l-12 -39l-2 -6q41 -4 81 -22.5t69 -50.5q27 -33 40 -72t13 -76q0 -102 -84 -174l-10 -10q-43 -37 -91.5 -74t-101.5 -70q-121 -72 -238 -71q-49 0 -98 14q-37 8 -68.5 27.5t-54.5 48.5q-25 -20 -47 -37.5 t-51 -36.5h2q-47 -33 -90 -55.5t-82 -38.5q-35 -14 -73.5 -20.5t-73.5 -6.5q-23 0 -42.5 1t-29.5 3q-57 16 -102.5 52t-67.5 88q-14 29 -18.5 52t-4.5 48q0 33 7 64l-39 26t-31 31q-49 66 -49 139z" />
<glyph unicode="@" d="M-204.5 386q-0.5 40 14 77t42 66.5t66.5 45.5q47 23 115.5 61t146.5 83q90 53 189.5 109.5t195.5 97.5q109 53 203 71q66 16 122 18.5t109 -11.5q113 -33 154 -140q31 -78 9.5 -151.5t-56.5 -139.5q6 2 13 3.5t14 5.5q39 14 78.5 11t75.5 -19.5t63.5 -46t42.5 -68.5 q14 -41 12 -81t-18.5 -76t-46 -63.5t-70.5 -41.5q-96 -35 -176 -63t-142 -48q-86 -25 -139 -36t-96 -11q-29 0 -64 10q-51 12 -88 46t-55 81q-33 78 2 176q12 35 37 82q4 8 9 17.5t11 19.5q-47 -25 -92 -52.5t-92 -51.5q-84 -51 -161 -93.5t-142 -70.5q-39 -18 -79 -18.5 t-77 14t-66.5 42t-45.5 66.5q-18 39 -18.5 79z" />
<glyph unicode="A" horiz-adv-x="1089" d="M-225 389q0 49 21.5 93t58.5 79q10 10 37.5 39t50.5 57l41 45q29 31 58.5 63t57.5 60q33 29 57.5 49.5t43.5 32.5q77 48 158 48q31 0 63 -7q119 -31 158 -133l-2 2q8 -18 13 -35.5t7 -36.5q29 31 51.5 58.5t40.5 50.5l29 33q4 4 6 8q2 2 4 6q47 55 111 79q38 14 77 14 q27 0 54 -7q45 -12 83 -45t62 -76q26 -60 26 -103v-9q-3 -46 -7 -62q-2 -10 -5.5 -19t-5.5 -18l-12 -39l-2 -6q41 -4 81 -22.5t69 -50.5q27 -33 40 -72t13 -76q0 -102 -84 -174l-10 -10q-43 -37 -91.5 -74t-101.5 -70q-119 -71 -235 -71h-3q-49 0 -98 14q-37 8 -68.5 27.5 t-54.5 48.5q-25 -20 -47 -37.5t-51 -36.5h2q-47 -33 -90 -55.5t-82 -38.5q-35 -14 -73.5 -20.5t-73.5 -6.5q-23 0 -42.5 1t-29.5 3q-57 16 -102.5 52t-67.5 88q-14 29 -18.5 52t-4.5 48q0 33 7 64l-39 26t-31 31q-49 66 -49 139z" />
<glyph unicode="B" horiz-adv-x="1089" d="M-225 389q0 49 21.5 93t58.5 79q10 10 37.5 39t50.5 57l41 45q29 31 58.5 63t57.5 60q33 29 57.5 49.5t43.5 32.5q77 48 158 48q31 0 63 -7q119 -31 158 -133l-2 2q8 -18 13 -35.5t7 -36.5q29 31 51.5 58.5t40.5 50.5l29 33q4 4 6 8q2 2 4 6q47 55 111 79q38 14 77 14 q27 0 54 -7q45 -12 83 -45t62 -76q26 -60 26 -103v-9q-3 -46 -7 -62q-2 -10 -5.5 -19t-5.5 -18l-12 -39l-2 -6q41 -4 81 -22.5t69 -50.5q27 -33 40 -72t13 -76q0 -102 -84 -174l-10 -10q-43 -37 -91.5 -74t-101.5 -70q-119 -71 -235 -71h-3q-49 0 -98 14q-37 8 -68.5 27.5 t-54.5 48.5q-25 -20 -47 -37.5t-51 -36.5h2q-47 -33 -90 -55.5t-82 -38.5q-35 -14 -73.5 -20.5t-73.5 -6.5q-23 0 -42.5 1t-29.5 3q-57 16 -102.5 52t-67.5 88q-14 29 -18.5 52t-4.5 48q0 33 7 64l-39 26t-31 31q-49 66 -49 139z" />
<glyph unicode="C" horiz-adv-x="1089" d="M-225 389q0 49 21.5 93t58.5 79q10 10 37.5 39t50.5 57l41 45q29 31 58.5 63t57.5 60q33 29 57.5 49.5t43.5 32.5q77 48 158 48q31 0 63 -7q119 -31 158 -133l-2 2q8 -18 13 -35.5t7 -36.5q29 31 51.5 58.5t40.5 50.5l29 33q4 4 6 8q2 2 4 6q47 55 111 79q38 14 77 14 q27 0 54 -7q45 -12 83 -45t62 -76q26 -60 26 -103v-9q-3 -46 -7 -62q-2 -10 -5.5 -19t-5.5 -18l-12 -39l-2 -6q41 -4 81 -22.5t69 -50.5q27 -33 40 -72t13 -76q0 -102 -84 -174l-10 -10q-43 -37 -91.5 -74t-101.5 -70q-119 -71 -235 -71h-3q-49 0 -98 14q-37 8 -68.5 27.5 t-54.5 48.5q-25 -20 -47 -37.5t-51 -36.5h2q-47 -33 -90 -55.5t-82 -38.5q-35 -14 -73.5 -20.5t-73.5 -6.5q-23 0 -42.5 1t-29.5 3q-57 16 -102.5 52t-67.5 88q-14 29 -18.5 52t-4.5 48q0 33 7 64l-39 26t-31 31q-49 66 -49 139z" />
<glyph unicode="D" horiz-adv-x="1089" d="M-225 389q0 49 21.5 93t58.5 79q10 10 37.5 39t50.5 57l41 45q29 31 58.5 63t57.5 60q33 29 57.5 49.5t43.5 32.5q77 48 158 48q31 0 63 -7q119 -31 158 -133l-2 2q8 -18 13 -35.5t7 -36.5q29 31 51.5 58.5t40.5 50.5l29 33q4 4 6 8q2 2 4 6q47 55 111 79q38 14 77 14 q27 0 54 -7q45 -12 83 -45t62 -76q26 -60 26 -103v-9q-3 -46 -7 -62q-2 -10 -5.5 -19t-5.5 -18l-12 -39l-2 -6q41 -4 81 -22.5t69 -50.5q27 -33 40 -72t13 -76q0 -102 -84 -174l-10 -10q-43 -37 -91.5 -74t-101.5 -70q-119 -71 -235 -71h-3q-49 0 -98 14q-37 8 -68.5 27.5 t-54.5 48.5q-25 -20 -47 -37.5t-51 -36.5h2q-47 -33 -90 -55.5t-82 -38.5q-35 -14 -73.5 -20.5t-73.5 -6.5q-23 0 -42.5 1t-29.5 3q-57 16 -102.5 52t-67.5 88q-14 29 -18.5 52t-4.5 48q0 33 7 64l-39 26t-31 31q-49 66 -49 139z" />
<glyph unicode="E" horiz-adv-x="1089" d="M-225 389q0 49 21.5 93t58.5 79q10 10 37.5 39t50.5 57l41 45q29 31 58.5 63t57.5 60q33 29 57.5 49.5t43.5 32.5q77 48 158 48q31 0 63 -7q119 -31 158 -133l-2 2q8 -18 13 -35.5t7 -36.5q29 31 51.5 58.5t40.5 50.5l29 33q4 4 6 8q2 2 4 6q47 55 111 79q38 14 77 14 q27 0 54 -7q45 -12 83 -45t62 -76q26 -60 26 -103v-9q-3 -46 -7 -62q-2 -10 -5.5 -19t-5.5 -18l-12 -39l-2 -6q41 -4 81 -22.5t69 -50.5q27 -33 40 -72t13 -76q0 -102 -84 -174l-10 -10q-43 -37 -91.5 -74t-101.5 -70q-119 -71 -235 -71h-3q-49 0 -98 14q-37 8 -68.5 27.5 t-54.5 48.5q-25 -20 -47 -37.5t-51 -36.5h2q-47 -33 -90 -55.5t-82 -38.5q-35 -14 -73.5 -20.5t-73.5 -6.5q-23 0 -42.5 1t-29.5 3q-57 16 -102.5 52t-67.5 88q-14 29 -18.5 52t-4.5 48q0 33 7 64l-39 26t-31 31q-49 66 -49 139z" />
<glyph unicode="F" horiz-adv-x="563" d="M-204 402q3 40 20.5 76t48.5 65q23 18 48.5 42.5t53.5 53.5q49 49 103.5 99t105.5 91q35 27 66.5 47.5t60.5 34.5q74 36 147 36q31 0 62 -7q55 -16 97 -55t65 -94q14 -40 14 -81q0 -45 -16 -92q-4 -10 -8.5 -20t-10.5 -23q74 -35 107 -114q12 -36 12 -72v-10 q-2 -41 -18.5 -77t-46 -63.5t-70.5 -41.5q-66 -25 -118 -44.5t-89 -31.5q-23 -8 -39 -14.5t-26 -10.5q-20 -4 -43 -10t-50 -6q-25 0 -55 6q-47 12 -84 42t-59 71q-36 -14 -74 -14q-22 1 -46 5q-63 14 -108 64q-29 32 -41 70q-10 31 -10 62q0 8 1 16z" />
<glyph unicode="G" horiz-adv-x="563" d="M-204 402q3 40 20.5 76t48.5 65q23 18 48.5 42.5t53.5 53.5q49 49 103.5 99t105.5 91q35 27 66.5 47.5t60.5 34.5q74 36 147 36q31 0 62 -7q55 -16 97 -55t65 -94q14 -40 14 -81q0 -45 -16 -92q-4 -10 -8.5 -20t-10.5 -23q74 -35 107 -114q12 -36 12 -72v-10 q-2 -41 -18.5 -77t-46 -63.5t-70.5 -41.5q-66 -25 -118 -44.5t-89 -31.5q-23 -8 -39 -14.5t-26 -10.5q-20 -4 -43 -10t-50 -6q-25 0 -55 6q-47 12 -84 42t-59 71q-36 -14 -74 -14q-23 0 -46 5q-63 13 -108 64q-29 31 -41 70q-10 30 -10 62q0 8 1 16z" />
<glyph unicode="H" horiz-adv-x="563" d="M-204 402q3 40 20.5 76t48.5 65q23 18 48.5 42.5t53.5 53.5q49 49 103.5 99t105.5 91q35 27 66.5 47.5t60.5 34.5q74 36 147 36q31 0 62 -7q55 -16 97 -55t65 -94q14 -40 14 -81q0 -45 -16 -92q-4 -10 -8.5 -20t-10.5 -23q74 -35 107 -114q12 -36 12 -72v-10 q-2 -41 -18.5 -77t-46 -63.5t-70.5 -41.5q-66 -25 -118 -44.5t-89 -31.5q-23 -8 -39 -14.5t-26 -10.5q-20 -4 -43 -10t-50 -6q-25 0 -55 6q-47 12 -84 42t-59 71q-36 -14 -74 -14q-22 1 -46 5q-63 14 -108 64q-29 32 -41 70q-10 31 -10 62q0 8 1 16z" />
<glyph unicode="I" horiz-adv-x="563" d="M-204 402q3 40 20.5 76t48.5 65q23 18 48.5 42.5t53.5 53.5q49 49 103.5 99t105.5 91q35 27 66.5 47.5t60.5 34.5q74 36 147 36q31 0 62 -7q55 -16 97 -55t65 -94q14 -40 14 -81q0 -45 -16 -92q-4 -10 -8.5 -20t-10.5 -23q74 -35 107 -114q12 -36 12 -72v-10 q-2 -41 -18.5 -77t-46 -63.5t-70.5 -41.5q-66 -25 -118 -44.5t-89 -31.5q-23 -8 -39 -14.5t-26 -10.5q-20 -4 -43 -10t-50 -6q-25 0 -55 6q-47 12 -84 42t-59 71q-36 -14 -74 -14q-22 1 -46 5q-63 14 -108 64q-29 32 -41 70q-10 31 -10 62q0 8 1 16z" />
<glyph unicode="J" horiz-adv-x="563" d="M-204 402q3 40 20.5 76t48.5 65q23 18 48.5 42.5t53.5 53.5q49 49 103.5 99t105.5 91q35 27 66.5 47.5t60.5 34.5q74 36 147 36q31 0 62 -7q55 -16 97 -55t65 -94q14 -40 14 -81q0 -45 -16 -92q-4 -10 -8.5 -20t-10.5 -23q74 -35 107 -114q12 -36 12 -72v-10 q-2 -41 -18.5 -77t-46 -63.5t-70.5 -41.5q-66 -25 -118 -44.5t-89 -31.5q-23 -8 -39 -14.5t-26 -10.5q-20 -4 -43 -10t-50 -6q-25 0 -55 6q-47 12 -84 42t-59 71q-36 -14 -74 -14q-23 0 -46 5q-63 13 -108 64q-29 31 -41 70q-10 30 -10 62q0 8 1 16z" />
<glyph unicode="K" horiz-adv-x="796" d="M-204 397q2 41 19 77t46.5 64.5t68.5 43.5q35 12 118 59t226 162q43 35 79 65.5t63 55.5q31 29 57 53q62 59 139 59q28 0 58 -8q41 -10 73.5 -36.5t53.5 -61.5q29 -50 29 -102v-14q-4 -60 -23 -138q-4 -20 -9.5 -40t-11.5 -42h14q58 0 107 -29q55 -33 84 -94 q17 -40 17 -82q0 -37 -14 -73t-41 -66.5t-66 -46.5q-68 -31 -124.5 -58.5t-98.5 -50t-66.5 -36t-26.5 -13.5q-49 -27 -98 -27q-76 0 -129 45q-50 39 -68 99q-10 32 -9 63q0 28 7 56q0 2 2 6t2 6t2 6q-113 -68 -204 -102q-35 -13 -72 -13h-8q-41 2 -76 18.5t-63.5 46.5 t-42.5 68q-14 34 -14 69v11z" />
<glyph unicode="L" horiz-adv-x="796" d="M-204 397q2 41 19 77t46.5 64.5t68.5 43.5q35 12 118 59t226 162q43 35 79 65.5t63 55.5q31 29 57 53q62 59 139 59q28 0 58 -8q41 -10 73.5 -36.5t53.5 -61.5q29 -50 29 -102v-14q-4 -60 -23 -138q-4 -20 -9.5 -40t-11.5 -42h14q58 0 107 -29q55 -33 84 -94 q17 -40 17 -82q0 -37 -14 -73t-41 -66.5t-66 -46.5q-68 -31 -124.5 -58.5t-98.5 -50t-66.5 -36t-26.5 -13.5q-49 -27 -98 -27q-76 0 -129 45q-50 39 -68 99q-10 32 -9 63q0 28 7 56q0 2 2 6t2 6t2 6q-113 -68 -204 -102q-35 -13 -72 -13h-8q-41 2 -76 18.5t-63.5 46.5 t-42.5 68q-14 34 -14 69v11z" />
<glyph unicode="M" horiz-adv-x="796" d="M-204 397q2 41 19 77t46.5 64.5t68.5 43.5q35 12 118 59t226 162q43 35 79 65.5t63 55.5q31 29 57 53q62 59 139 59q28 0 58 -8q41 -10 73.5 -36.5t53.5 -61.5q29 -50 29 -102v-14q-4 -60 -23 -138q-4 -20 -9.5 -40t-11.5 -42h14q58 0 107 -29q55 -33 84 -94 q17 -40 17 -82q0 -37 -14 -73t-41 -66.5t-66 -46.5q-68 -31 -124.5 -58.5t-98.5 -50t-66.5 -36t-26.5 -13.5q-49 -27 -98 -27q-76 0 -129 45q-50 39 -68 99q-10 32 -9 63q0 28 7 56q0 2 2 6t2 6t2 6q-113 -68 -204 -102q-35 -13 -72 -13h-8q-41 2 -76 18.5t-63.5 46.5 t-42.5 68q-14 34 -14 69v11z" />
<glyph unicode="N" horiz-adv-x="796" d="M-204 397q2 41 19 77t46.5 64.5t68.5 43.5q35 12 118 59t226 162q43 35 79 65.5t63 55.5q31 29 57 53q62 59 139 59q28 0 58 -8q41 -10 73.5 -36.5t53.5 -61.5q29 -50 29 -102v-14q-4 -60 -23 -138q-4 -20 -9.5 -40t-11.5 -42h14q58 0 107 -29q55 -33 84 -94 q17 -40 17 -82q0 -37 -14 -73t-41 -66.5t-66 -46.5q-68 -31 -124.5 -58.5t-98.5 -50t-66.5 -36t-26.5 -13.5q-49 -27 -98 -27q-76 0 -129 45q-50 39 -68 99q-10 32 -9 63q0 28 7 56q0 2 2 6t2 6t2 6q-113 -68 -204 -102q-35 -13 -72 -13h-8q-41 2 -76 18.5t-63.5 46.5 t-42.5 68q-14 34 -14 69v11z" />
<glyph unicode="O" horiz-adv-x="796" d="M-204 397q2 41 19 77t46.5 64.5t68.5 43.5q35 12 118 59t226 162q43 35 79 65.5t63 55.5q31 29 57 53q62 59 139 59q28 0 58 -8q41 -10 73.5 -36.5t53.5 -61.5q29 -50 29 -102v-14q-4 -60 -23 -138q-4 -20 -9.5 -40t-11.5 -42h14q58 0 107 -29q55 -33 84 -94 q17 -40 17 -82q0 -37 -14 -73t-41 -66.5t-66 -46.5q-68 -31 -124.5 -58.5t-98.5 -50t-66.5 -36t-26.5 -13.5q-49 -27 -98 -27q-76 0 -129 45q-50 39 -68 99q-10 32 -9 63q0 28 7 56q0 2 2 6t2 6t2 6q-113 -68 -204 -102q-35 -13 -72 -13h-8q-41 2 -76 18.5t-63.5 46.5 t-42.5 68q-14 34 -14 69v11z" />
<glyph unicode="P" d="M-205 389q1 39 15 74q14 37 41.5 66.5t66.5 45.5q47 23 115.5 61t146.5 83q90 53 189.5 109.5t195.5 97.5q109 53 203 71q66 17 122 19h17q47 0 92 -12q113 -33 154 -140q18 -46 18 -91q-1 -31 -9 -61q-22 -74 -56 -139q6 2 13 3.5t14 5.5q32 12 65 12q8 0 14 -1 q40 -3 75.5 -19.5t63 -46t42.5 -68.5q12 -36 12 -71v-10q-2 -40 -18.5 -76t-46 -63.5t-70.5 -41.5q-96 -35 -176 -63t-142 -48q-86 -25 -139 -36t-96 -11q-29 0 -64 10q-51 12 -88 46t-55 81q-16 38 -16 80q0 45 18 96q12 35 37 82q4 8 9 17.5t11 19.5q-47 -25 -92 -52.5 t-92 -51.5q-84 -51 -161 -93.5t-142 -70.5q-39 -19 -79 -19h-3q-39 0 -74 14q-37 14 -66.5 42t-45.5 67q-19 40 -19 82z" />
<glyph unicode="Q" d="M-205 389q0 38 15 74q14 37 41.5 66.5t66.5 45.5q47 23 115.5 61t146.5 83q90 53 189.5 109.5t195.5 97.5q109 53 203 71q66 16 122 19h17q47 0 92 -12q113 -33 154 -140q18 -46 18 -91q0 -30 -9 -61q-21 -73 -56 -139q6 2 13 3.5t14 5.5q32 12 65 12q7 0 14 -1 q39 -3 75 -19.5t63.5 -46t42.5 -68.5q12 -36 12 -71v-10q-2 -40 -18.5 -76t-46 -63.5t-70.5 -41.5q-96 -35 -176 -63t-142 -48q-86 -25 -139 -36t-96 -11q-29 0 -64 10q-51 12 -88 46t-55 81q-16 38 -16 80q0 46 18 96q12 35 37 82q4 8 9 17.5t11 19.5q-47 -25 -92 -52.5 t-92 -51.5q-84 -51 -161 -93.5t-142 -70.5q-39 -18 -79 -19h-3q-38 0 -74 14q-37 15 -66.5 42.5t-45.5 66.5q-19 40 -19 82z" />
<glyph unicode="R" d="M-205 389q1 39 15 74q14 37 41.5 66.5t66.5 45.5q47 23 115.5 61t146.5 83q90 53 189.5 109.5t195.5 97.5q109 53 203 71q66 17 122 19h17q47 0 92 -12q113 -33 154 -140q18 -46 18 -91q-1 -31 -9 -61q-22 -74 -56 -139q6 2 13 3.5t14 5.5q32 12 65 12q8 0 14 -1 q40 -3 75.5 -19.5t63 -46t42.5 -68.5q12 -36 12 -71v-10q-2 -40 -18.5 -76t-46 -63.5t-70.5 -41.5q-96 -35 -176 -63t-142 -48q-86 -25 -139 -36t-96 -11q-29 0 -64 10q-51 12 -88 46t-55 81q-16 38 -16 80q0 45 18 96q12 35 37 82q4 8 9 17.5t11 19.5q-47 -25 -92 -52.5 t-92 -51.5q-84 -51 -161 -93.5t-142 -70.5q-39 -19 -79 -19h-3q-39 0 -74 14q-37 14 -66.5 42t-45.5 67q-19 40 -19 82z" />
<glyph unicode="S" d="M-205 389q1 39 15 74q14 37 41.5 66.5t66.5 45.5q47 23 115.5 61t146.5 83q90 53 189.5 109.5t195.5 97.5q109 53 203 71q66 17 122 19h17q47 0 92 -12q113 -33 154 -140q18 -46 18 -91q-1 -31 -9 -61q-22 -74 -56 -139q6 2 13 3.5t14 5.5q32 12 65 12q8 0 14 -1 q40 -3 75.5 -19.5t63 -46t42.5 -68.5q12 -36 12 -71v-10q-2 -40 -18.5 -76t-46 -63.5t-70.5 -41.5q-96 -35 -176 -63t-142 -48q-86 -25 -139 -36t-96 -11q-29 0 -64 10q-51 12 -88 46t-55 81q-16 38 -16 80q0 45 18 96q12 35 37 82q4 8 9 17.5t11 19.5q-47 -25 -92 -52.5 t-92 -51.5q-84 -51 -161 -93.5t-142 -70.5q-39 -19 -79 -19h-3q-39 0 -74 14q-37 14 -66.5 42t-45.5 67q-19 40 -19 82z" />
<glyph unicode="T" d="M-205 389q1 39 15 74q14 37 41.5 66.5t66.5 45.5q47 23 115.5 61t146.5 83q90 53 189.5 109.5t195.5 97.5q109 53 203 71q66 17 122 19h17q47 0 92 -12q113 -33 154 -140q18 -46 18 -91q-1 -31 -9 -61q-22 -74 -56 -139q6 2 13 3.5t14 5.5q32 12 65 12q8 0 14 -1 q40 -3 75.5 -19.5t63 -46t42.5 -68.5q12 -36 12 -71v-10q-2 -40 -18.5 -76t-46 -63.5t-70.5 -41.5q-96 -35 -176 -63t-142 -48q-86 -25 -139 -36t-96 -11q-29 0 -64 10q-51 12 -88 46t-55 81q-16 38 -16 80q0 45 18 96q12 35 37 82q4 8 9 17.5t11 19.5q-47 -25 -92 -52.5 t-92 -51.5q-84 -51 -161 -93.5t-142 -70.5q-39 -19 -79 -19h-3q-39 0 -74 14q-37 14 -66.5 42t-45.5 67q-19 40 -19 82z" />
<glyph unicode="U" horiz-adv-x="798" d="M-204 399q3 41 19.5 76t45 63.5t69.5 43.5q6 2 23.5 10t50.5 29.5t82 60.5t121 100q41 37 76.5 70t62.5 57.5t42 40t18 15.5q39 39 91 53q24 7 49 7q28 0 56 -9q88 -23 127 -103q11 -23 21 -63q3 -15 4 -31q0 -29 -11 -63q0 -4 -2 -5t-2 -6q-2 -4 -3 -10t-3 -10 q-4 -14 -11 -30.5t-15 -39.5t-17.5 -49t-21.5 -55l8 4t8 6q35 23 75 30q19 3 37 3q20 0 40 -4q38 -8 72 -30.5t57 -57.5q25 -35 32 -76q3 -19 3 -36q0 -22 -4 -43q-8 -38 -31 -72.5t-58 -57.5q-49 -33 -93 -64.5t-89 -66.5q-51 -39 -95 -71.5t-89 -57.5q-33 -18 -61.5 -29.5 t-57.5 -19.5q-45 -10 -82 -10t-78 10q-43 10 -77.5 37.5t-53.5 66.5q-14 27 -19.5 51.5t-5.5 46t2.5 38t4.5 26.5t4 21.5t6 23.5q-14 -8 -26.5 -13t-26.5 -9q-35 -12 -70 -13q-63 0 -116.5 36t-76.5 99q-12 32 -12 66q0 7 1 14z" />
<glyph unicode="V" horiz-adv-x="798" d="M-204 399q3 41 19.5 76t45 63.5t69.5 43.5q6 2 23.5 10t50.5 29.5t82 60.5t121 100q41 37 76.5 70t62.5 57.5t42 40t18 15.5q39 39 91 53q24 7 49 7q28 0 56 -9q88 -23 127 -103q11 -23 21 -63q3 -15 4 -31q0 -29 -11 -63q0 -4 -2 -5t-2 -6q-2 -4 -3 -10t-3 -10 q-4 -14 -11 -30.5t-15 -39.5t-17.5 -49t-21.5 -55l8 4t8 6q35 23 75 30q19 3 37 3q20 0 40 -4q38 -8 72 -30.5t57 -57.5q25 -35 32 -76q3 -19 3 -36q0 -22 -4 -43q-8 -38 -31 -72.5t-58 -57.5q-49 -33 -93 -64.5t-89 -66.5q-51 -39 -95 -71.5t-89 -57.5q-33 -18 -61.5 -29.5 t-57.5 -19.5q-45 -10 -82 -10t-78 10q-43 10 -77.5 37.5t-53.5 66.5q-14 27 -19.5 51.5t-5.5 46t2.5 38t4.5 26.5t4 21.5t6 23.5q-14 -8 -26.5 -13t-26.5 -9q-35 -12 -70 -13q-63 0 -116.5 36t-76.5 99q-12 32 -12 66q0 7 1 14z" />
<glyph unicode="W" horiz-adv-x="798" d="M-204 399q3 41 19.5 76t45 63.5t69.5 43.5q6 2 23.5 10t50.5 29.5t82 60.5t121 100q41 37 76.5 70t62.5 57.5t42 40t18 15.5q39 39 91 53q24 7 49 7q28 0 56 -9q88 -23 127 -103q11 -23 21 -63q3 -15 4 -31q0 -29 -11 -63q0 -4 -2 -5t-2 -6q-2 -4 -3 -10t-3 -10 q-4 -14 -11 -30.5t-15 -39.5t-17.5 -49t-21.5 -55l8 4t8 6q35 23 75 30q19 3 37 3q20 0 40 -4q38 -8 72 -30.5t57 -57.5q25 -35 32 -76q3 -19 3 -36q0 -22 -4 -43q-8 -38 -31 -72.5t-58 -57.5q-49 -33 -93 -64.5t-89 -66.5q-51 -39 -95 -71.5t-89 -57.5q-33 -18 -61.5 -29.5 t-57.5 -19.5q-45 -10 -82 -10t-78 10q-43 10 -77.5 37.5t-53.5 66.5q-14 27 -19.5 51.5t-5.5 46t2.5 38t4.5 26.5t4 21.5t6 23.5q-14 -8 -26.5 -13t-26.5 -9q-35 -12 -70 -13q-63 0 -116.5 36t-76.5 99q-12 32 -12 66q0 7 1 14z" />
<glyph unicode="X" horiz-adv-x="798" d="M-204 399q3 41 19.5 76t45 63.5t69.5 43.5q6 2 23.5 10t50.5 29.5t82 60.5t121 100q41 37 76.5 70t62.5 57.5t42 40t18 15.5q39 39 91 53q24 7 49 7q28 0 56 -9q88 -23 127 -103q11 -23 21 -63q3 -15 4 -31q0 -29 -11 -63q0 -4 -2 -5t-2 -6q-2 -4 -3 -10t-3 -10 q-4 -14 -11 -30.5t-15 -39.5t-17.5 -49t-21.5 -55l8 4t8 6q35 23 75 30q19 3 37 3q20 0 40 -4q38 -8 72 -30.5t57 -57.5q25 -35 32 -76q3 -19 3 -36q0 -22 -4 -43q-8 -38 -31 -72.5t-58 -57.5q-49 -33 -93 -64.5t-89 -66.5q-51 -39 -95 -71.5t-89 -57.5q-33 -18 -61.5 -29.5 t-57.5 -19.5q-45 -10 -82 -10t-78 10q-43 10 -77.5 37.5t-53.5 66.5q-14 27 -19.5 51.5t-5.5 46t2.5 38t4.5 26.5t4 21.5t6 23.5q-14 -8 -26.5 -13t-26.5 -9q-35 -12 -70 -13q-63 0 -116.5 36t-76.5 99q-12 32 -12 66q0 7 1 14z" />
<glyph unicode="Y" horiz-adv-x="798" d="M-204 399q3 41 19.5 76t45 63.5t69.5 43.5q6 2 23.5 10t50.5 29.5t82 60.5t121 100q41 37 76.5 70t62.5 57.5t42 40t18 15.5q39 39 91 53q24 7 49 7q28 0 56 -9q88 -23 127 -103q12 -23 21 -63q4 -15 4 -31q0 -29 -11 -63q0 -4 -2 -5t-2 -6q-2 -4 -3 -10t-3 -10 q-4 -14 -11 -30.5t-15 -39.5t-17.5 -49t-21.5 -55l8 4t8 6q35 23 75 30q19 3 37 3q20 0 40 -4q38 -8 72 -30.5t57 -57.5q25 -35 32 -76q3 -19 3 -36q0 -22 -4 -43q-9 -38 -31.5 -72.5t-57.5 -57.5q-49 -33 -93 -64.5t-89 -66.5q-51 -39 -95 -71.5t-89 -57.5 q-33 -18 -61.5 -29.5t-57.5 -19.5q-45 -10 -82 -10t-78 10q-43 10 -77.5 37.5t-53.5 66.5q-14 27 -19.5 51.5t-5.5 46t2.5 38t4.5 26.5t4 21.5t6 23.5q-14 -8 -26.5 -13t-26.5 -9q-35 -12 -70 -13q-63 0 -116.5 36t-76.5 99q-12 32 -12 66q0 7 1 14z" />
<glyph unicode="Z" horiz-adv-x="798" d="M-204 399q3 41 19.5 76t45 63.5t69.5 43.5q6 2 23.5 10t50.5 29.5t82 60.5t121 100q41 37 76.5 70t62.5 57.5t42 40t18 15.5q39 39 91 53q24 7 49 7q28 0 56 -9q88 -23 127 -103q11 -23 21 -63q3 -15 4 -31q0 -29 -11 -63q0 -4 -2 -5t-2 -6q-2 -4 -3 -10t-3 -10 q-4 -14 -11 -30.5t-15 -39.5t-17.5 -49t-21.5 -55l8 4t8 6q35 23 75 30q19 3 37 3q20 0 40 -4q38 -8 72 -30.5t57 -57.5q25 -35 32 -76q3 -19 3 -36q0 -22 -4 -43q-8 -38 -31 -72.5t-58 -57.5q-49 -33 -93 -64.5t-89 -66.5q-51 -39 -95 -71.5t-89 -57.5q-33 -18 -61.5 -29.5 t-57.5 -19.5q-45 -10 -82 -10t-78 10q-43 10 -77.5 37.5t-53.5 66.5q-14 27 -19.5 51.5t-5.5 46t2.5 38t4.5 26.5t4 21.5t6 23.5q-14 -8 -26.5 -13t-26.5 -9q-35 -12 -70 -13q-63 0 -116.5 36t-76.5 99q-12 32 -12 66q0 7 1 14z" />
<glyph unicode="[" horiz-adv-x="796" d="M-203.5 397q2.5 41 19 77t46 64.5t68.5 43.5q35 12 118 59t226 162q43 35 79 65.5t63 55.5q31 29 57 53q84 80 197 51q41 -10 73.5 -36.5t53.5 -61.5q33 -57 28.5 -116.5t-22.5 -137.5q-4 -20 -9.5 -40t-11.5 -42q66 4 121 -29t84 -94q16 -39 16.5 -79t-13 -76.5 t-41 -66.5t-66.5 -46q-68 -31 -124.5 -58.5t-98.5 -50t-66.5 -36t-26.5 -13.5q-49 -27 -98 -27q-76 0 -129 45q-49 39 -67.5 98.5t-2.5 119.5q0 2 2 6t2 6t2 6q-113 -68 -204 -102q-39 -14 -80 -12.5t-76 18t-63.5 46.5t-42.5 68q-16 39 -13.5 80z" />
<glyph unicode="\" horiz-adv-x="798" d="M-204 399q3 41 19.5 76t45 63.5t69.5 43.5q6 2 23.5 10t50.5 29.5t82 60.5t121 100q41 37 76.5 70t62.5 57.5t42 40t18 15.5q39 39 91 53t105 -2q88 -23 127 -103q12 -23 21.5 -63.5t-7.5 -93.5q0 -4 -2 -5t-2 -6q-2 -4 -3 -10t-3 -10q-4 -14 -11 -30.5t-15 -39.5 t-17.5 -49t-21.5 -55l8 4t8 6q35 23 75 30t77.5 -1t71.5 -30.5t57 -57.5q25 -35 32 -76t-1.5 -79t-31 -72.5t-57.5 -57.5q-49 -33 -93 -64.5t-89 -66.5q-51 -39 -95 -71.5t-89 -57.5q-33 -18 -61.5 -29.5t-57.5 -19.5q-45 -10 -82 -10t-78 10q-43 10 -77.5 37.5t-53.5 66.5 q-14 27 -19.5 51.5t-5.5 46t2.5 38t4.5 26.5t4 21.5t6 23.5q-14 -8 -26.5 -13t-26.5 -9q-35 -12 -70 -13q-63 0 -116.5 36t-76.5 99q-14 39 -11 80z" />
<glyph unicode="]" d="M-204.5 386q-0.5 40 14 77t42 66.5t66.5 45.5q47 23 115.5 61t146.5 83q90 53 189.5 109.5t195.5 97.5q109 53 203 71q66 16 122 18.5t109 -11.5q113 -33 154 -140q31 -78 9.5 -151.5t-56.5 -139.5q6 2 13 3.5t14 5.5q39 14 78.5 11t75.5 -19.5t63.5 -46t42.5 -68.5 q14 -41 12 -81t-18.5 -76t-46 -63.5t-70.5 -41.5q-96 -35 -176 -63t-142 -48q-86 -25 -139 -36t-96 -11q-29 0 -64 10q-51 12 -88 46t-55 81q-33 78 2 176q12 35 37 82q4 8 9 17.5t11 19.5q-47 -25 -92 -52.5t-92 -51.5q-84 -51 -161 -93.5t-142 -70.5q-39 -18 -79 -18.5 t-77 14t-66.5 42t-45.5 66.5q-18 39 -18.5 79z" />
<glyph unicode="^" horiz-adv-x="1089" d="M-225 389q0 49 21.5 93t58.5 79q10 10 37.5 39t50.5 57l41 45q29 31 58.5 63t57.5 60q33 29 57.5 49.5t43.5 32.5q106 66 221 41q119 -31 158 -133l-2 2q8 -18 13 -35.5t7 -36.5q29 31 51.5 58.5t40.5 50.5l29 33q4 4 6 8q2 2 4 6q47 55 111.5 79t130.5 7q45 -12 83 -45 t62 -76q29 -66 26 -111.5t-7 -62.5q-2 -10 -5.5 -19t-5.5 -18l-12 -39l-2 -6q41 -4 81 -22.5t69 -50.5q27 -33 40 -72t13 -76q0 -102 -84 -174l-10 -10q-43 -37 -91.5 -74t-101.5 -70q-121 -72 -238 -71q-49 0 -98 14q-37 8 -68.5 27.5t-54.5 48.5q-25 -20 -47 -37.5 t-51 -36.5h2q-47 -33 -90 -55.5t-82 -38.5q-35 -14 -73.5 -20.5t-73.5 -6.5q-23 0 -42.5 1t-29.5 3q-57 16 -102.5 52t-67.5 88q-14 29 -18.5 52t-4.5 48q0 33 7 64l-39 26t-31 31q-49 66 -49 139z" />
<glyph unicode="_" horiz-adv-x="1089" d="M-225 389q0 49 21.5 93t58.5 79q10 10 37.5 39t50.5 57l41 45q29 31 58.5 63t57.5 60q33 29 57.5 49.5t43.5 32.5q106 66 221 41q119 -31 158 -133l-2 2q8 -18 13 -35.5t7 -36.5q29 31 51.5 58.5t40.5 50.5l29 33q4 4 6 8q2 2 4 6q47 55 111.5 79t130.5 7q45 -12 83 -45 t62 -76q29 -66 26 -111.5t-7 -62.5q-2 -10 -5.5 -19t-5.5 -18l-12 -39l-2 -6q41 -4 81 -22.5t69 -50.5q27 -33 40 -72t13 -76q0 -102 -84 -174l-10 -10q-43 -37 -91.5 -74t-101.5 -70q-121 -72 -238 -71q-49 0 -98 14q-37 8 -68.5 27.5t-54.5 48.5q-25 -20 -47 -37.5 t-51 -36.5h2q-47 -33 -90 -55.5t-82 -38.5q-35 -14 -73.5 -20.5t-73.5 -6.5q-23 0 -42.5 1t-29.5 3q-57 16 -102.5 52t-67.5 88q-14 29 -18.5 52t-4.5 48q0 33 7 64l-39 26t-31 31q-49 66 -49 139z" />
<glyph unicode="`" d="M-204.5 386q-0.5 40 14 77t42 66.5t66.5 45.5q47 23 115.5 61t146.5 83q90 53 189.5 109.5t195.5 97.5q109 53 203 71q66 16 122 18.5t109 -11.5q113 -33 154 -140q31 -78 9.5 -151.5t-56.5 -139.5q6 2 13 3.5t14 5.5q39 14 78.5 11t75.5 -19.5t63.5 -46t42.5 -68.5 q14 -41 12 -81t-18.5 -76t-46 -63.5t-70.5 -41.5q-96 -35 -176 -63t-142 -48q-86 -25 -139 -36t-96 -11q-29 0 -64 10q-51 12 -88 46t-55 81q-33 78 2 176q12 35 37 82q4 8 9 17.5t11 19.5q-47 -25 -92 -52.5t-92 -51.5q-84 -51 -161 -93.5t-142 -70.5q-39 -18 -79 -18.5 t-77 14t-66.5 42t-45.5 66.5q-18 39 -18.5 79z" />
<glyph unicode="a" horiz-adv-x="1089" d="M-225 389q0 49 21.5 93t58.5 79q10 10 37.5 39t50.5 57l41 45q29 31 58.5 63t57.5 60q33 29 57.5 49.5t43.5 32.5q77 48 158 48q31 0 63 -7q119 -31 158 -133l-2 2q8 -18 13 -35.5t7 -36.5q29 31 51.5 58.5t40.5 50.5l29 33q4 4 6 8q2 2 4 6q47 55 111 79q38 14 77 14 q27 0 54 -7q45 -12 83 -45t62 -76q26 -60 26 -103v-9q-3 -46 -7 -62q-2 -10 -5.5 -19t-5.5 -18l-12 -39l-2 -6q41 -4 81 -22.5t69 -50.5q27 -33 40 -72t13 -76q0 -102 -84 -174l-10 -10q-43 -37 -91.5 -74t-101.5 -70q-119 -71 -235 -71h-3q-49 0 -98 14q-37 8 -68.5 27.5 t-54.5 48.5q-25 -20 -47 -37.5t-51 -36.5h2q-47 -33 -90 -55.5t-82 -38.5q-35 -14 -73.5 -20.5t-73.5 -6.5q-23 0 -42.5 1t-29.5 3q-57 16 -102.5 52t-67.5 88q-14 29 -18.5 52t-4.5 48q0 33 7 64l-39 26t-31 31q-49 66 -49 139z" />
<glyph unicode="b" horiz-adv-x="1089" d="M-225 389q0 49 21.5 93t58.5 79q10 10 37.5 39t50.5 57l41 45q29 31 58.5 63t57.5 60q33 29 57.5 49.5t43.5 32.5q77 48 158 48q31 0 63 -7q119 -31 158 -133l-2 2q8 -18 13 -35.5t7 -36.5q29 31 51.5 58.5t40.5 50.5l29 33q4 4 6 8q2 2 4 6q47 55 111 79q38 14 77 14 q27 0 54 -7q45 -12 83 -45t62 -76q26 -60 26 -103v-9q-3 -46 -7 -62q-2 -10 -5.5 -19t-5.5 -18l-12 -39l-2 -6q41 -4 81 -22.5t69 -50.5q27 -33 40 -72t13 -76q0 -102 -84 -174l-10 -10q-43 -37 -91.5 -74t-101.5 -70q-119 -71 -235 -71h-3q-49 0 -98 14q-37 8 -68.5 27.5 t-54.5 48.5q-25 -20 -47 -37.5t-51 -36.5h2q-47 -33 -90 -55.5t-82 -38.5q-35 -14 -73.5 -20.5t-73.5 -6.5q-23 0 -42.5 1t-29.5 3q-57 16 -102.5 52t-67.5 88q-14 29 -18.5 52t-4.5 48q0 33 7 64l-39 26t-31 31q-49 66 -49 139z" />
<glyph unicode="c" horiz-adv-x="1089" d="M-225 389q0 49 21.5 93t58.5 79q10 10 37.5 39t50.5 57l41 45q29 31 58.5 63t57.5 60q33 29 57.5 49.5t43.5 32.5q77 48 158 48q31 0 63 -7q119 -31 158 -133l-2 2q8 -18 13 -35.5t7 -36.5q29 31 51.5 58.5t40.5 50.5l29 33q4 4 6 8q2 2 4 6q47 55 111 79q38 14 77 14 q27 0 54 -7q45 -12 83 -45t62 -76q26 -60 26 -103v-9q-3 -46 -7 -62q-2 -10 -5.5 -19t-5.5 -18l-12 -39l-2 -6q41 -4 81 -22.5t69 -50.5q27 -33 40 -72t13 -76q0 -102 -84 -174l-10 -10q-43 -37 -91.5 -74t-101.5 -70q-119 -71 -235 -71h-3q-49 0 -98 14q-37 8 -68.5 27.5 t-54.5 48.5q-25 -20 -47 -37.5t-51 -36.5h2q-47 -33 -90 -55.5t-82 -38.5q-35 -14 -73.5 -20.5t-73.5 -6.5q-23 0 -42.5 1t-29.5 3q-57 16 -102.5 52t-67.5 88q-14 29 -18.5 52t-4.5 48q0 33 7 64l-39 26t-31 31q-49 66 -49 139z" />
<glyph unicode="d" horiz-adv-x="1089" d="M-225 389q0 49 21.5 93t58.5 79q10 10 37.5 39t50.5 57l41 45q29 31 58.5 63t57.5 60q33 29 57.5 49.5t43.5 32.5q77 48 158 48q31 0 63 -7q119 -31 158 -133l-2 2q8 -18 13 -35.5t7 -36.5q29 31 51.5 58.5t40.5 50.5l29 33q4 4 6 8q2 2 4 6q47 55 111 79q38 14 77 14 q27 0 54 -7q45 -12 83 -45t62 -76q26 -60 26 -103v-9q-3 -46 -7 -62q-2 -10 -5.5 -19t-5.5 -18l-12 -39l-2 -6q41 -4 81 -22.5t69 -50.5q27 -33 40 -72t13 -76q0 -102 -84 -174l-10 -10q-43 -37 -91.5 -74t-101.5 -70q-119 -71 -235 -71h-3q-49 0 -98 14q-37 8 -68.5 27.5 t-54.5 48.5q-25 -20 -47 -37.5t-51 -36.5h2q-47 -33 -90 -55.5t-82 -38.5q-35 -14 -73.5 -20.5t-73.5 -6.5q-23 0 -42.5 1t-29.5 3q-57 16 -102.5 52t-67.5 88q-14 29 -18.5 52t-4.5 48q0 33 7 64l-39 26t-31 31q-49 66 -49 139z" />
<glyph unicode="e" horiz-adv-x="1089" d="M-225 389q0 49 21.5 93t58.5 79q10 10 37.5 39t50.5 57l41 45q29 31 58.5 63t57.5 60q33 29 57.5 49.5t43.5 32.5q77 48 158 48q31 0 63 -7q119 -31 158 -133l-2 2q8 -18 13 -35.5t7 -36.5q29 31 51.5 58.5t40.5 50.5l29 33q4 4 6 8q2 2 4 6q47 55 111 79q38 14 77 14 q27 0 54 -7q45 -12 83 -45t62 -76q26 -60 26 -103v-9q-3 -46 -7 -62q-2 -10 -5.5 -19t-5.5 -18l-12 -39l-2 -6q41 -4 81 -22.5t69 -50.5q27 -33 40 -72t13 -76q0 -102 -84 -174l-10 -10q-43 -37 -91.5 -74t-101.5 -70q-119 -71 -235 -71h-3q-49 0 -98 14q-37 8 -68.5 27.5 t-54.5 48.5q-25 -20 -47 -37.5t-51 -36.5h2q-47 -33 -90 -55.5t-82 -38.5q-35 -14 -73.5 -20.5t-73.5 -6.5q-23 0 -42.5 1t-29.5 3q-57 16 -102.5 52t-67.5 88q-14 29 -18.5 52t-4.5 48q0 33 7 64l-39 26t-31 31q-49 66 -49 139z" />
<glyph unicode="f" horiz-adv-x="563" d="M-204 402q3 40 20.5 76t48.5 65q23 18 48.5 42.5t53.5 53.5q49 49 103.5 99t105.5 91q35 27 66.5 47.5t60.5 34.5q74 36 147 36q31 0 62 -7q55 -16 97 -55t65 -94q14 -40 14 -81q0 -45 -16 -92q-4 -10 -8.5 -20t-10.5 -23q74 -35 107 -114q12 -36 12 -72v-10 q-2 -41 -18.5 -77t-46 -63.5t-70.5 -41.5q-66 -25 -118 -44.5t-89 -31.5q-23 -8 -39 -14.5t-26 -10.5q-20 -4 -43 -10t-50 -6q-25 0 -55 6q-47 12 -84 42t-59 71q-36 -14 -74 -14q-23 0 -46 5q-63 13 -108 64q-29 31 -41 70q-10 30 -10 62q0 8 1 16z" />
<glyph unicode="g" horiz-adv-x="563" d="M-204 402q3 40 20.5 76t48.5 65q23 18 48.5 42.5t53.5 53.5q49 49 103.5 99t105.5 91q35 27 66.5 47.5t60.5 34.5q74 36 147 36q31 0 62 -7q55 -16 97 -55t65 -94q14 -40 14 -81q0 -45 -16 -92q-4 -10 -8.5 -20t-10.5 -23q74 -35 107 -114q12 -36 12 -72v-10 q-2 -41 -18.5 -77t-46 -63.5t-70.5 -41.5q-66 -25 -118 -44.5t-89 -31.5q-23 -8 -39 -14.5t-26 -10.5q-20 -4 -43 -10t-50 -6q-25 0 -55 6q-47 12 -84 42t-59 71q-36 -14 -74 -14q-23 0 -46 5q-63 13 -108 64q-29 31 -41 70q-10 30 -10 62q0 8 1 16z" />
<glyph unicode="h" horiz-adv-x="563" d="M-204 402q3 40 20.5 76t48.5 65q23 18 48.5 42.5t53.5 53.5q49 49 103.5 99t105.5 91q35 27 66.5 47.5t60.5 34.5q74 36 147 36q31 0 62 -7q55 -16 97 -55t65 -94q14 -40 14 -81q0 -45 -16 -92q-4 -10 -8.5 -20t-10.5 -23q74 -35 107 -114q12 -36 12 -72v-10 q-2 -41 -18.5 -77t-46 -63.5t-70.5 -41.5q-66 -25 -118 -44.5t-89 -31.5q-23 -8 -39 -14.5t-26 -10.5q-20 -4 -43 -10t-50 -6q-25 0 -55 6q-47 12 -84 42t-59 71q-36 -14 -74 -14q-22 1 -46 5q-63 14 -108 64q-29 32 -41 70q-10 31 -10 62q0 8 1 16z" />
<glyph unicode="i" horiz-adv-x="563" d="M-204 402q3 40 20.5 76t48.5 65q23 18 48.5 42.5t53.5 53.5q49 49 103.5 99t105.5 91q35 27 66.5 47.5t60.5 34.5q74 36 147 36q31 0 62 -7q55 -16 97 -55t65 -94q14 -40 14 -81q0 -45 -16 -92q-4 -10 -8.5 -20t-10.5 -23q74 -35 107 -114q12 -36 12 -72v-10 q-2 -41 -18.5 -77t-46 -63.5t-70.5 -41.5q-66 -25 -118 -44.5t-89 -31.5q-23 -8 -39 -14.5t-26 -10.5q-20 -4 -43 -10t-50 -6q-25 0 -55 6q-47 12 -84 42t-59 71q-36 -14 -74 -14q-22 1 -46 5q-63 14 -108 64q-29 32 -41 70q-10 31 -10 62q0 8 1 16z" />
<glyph unicode="j" horiz-adv-x="563" d="M-204 402q3 40 20.5 76t48.5 65q23 18 48.5 42.5t53.5 53.5q49 49 103.5 99t105.5 91q35 27 66.5 47.5t60.5 34.5q74 36 147 36q31 0 62 -7q55 -16 97 -55t65 -94q14 -40 14 -81q0 -45 -16 -92q-4 -10 -8.5 -20t-10.5 -23q74 -35 107 -114q12 -36 12 -72v-10 q-2 -41 -18.5 -77t-46 -63.5t-70.5 -41.5q-66 -25 -118 -44.5t-89 -31.5q-23 -8 -39 -14.5t-26 -10.5q-20 -4 -43 -10t-50 -6q-25 0 -55 6q-47 12 -84 42t-59 71q-36 -14 -74 -14q-23 0 -46 5q-63 13 -108 64q-29 31 -41 70q-10 30 -10 62q0 8 1 16z" />
<glyph unicode="k" horiz-adv-x="796" d="M-204 397q2 41 19 77t46.5 64.5t68.5 43.5q35 12 118 59t226 162q43 35 79 65.5t63 55.5q31 29 57 53q62 59 139 59q28 0 58 -8q41 -10 73.5 -36.5t53.5 -61.5q29 -50 29 -102v-14q-4 -60 -23 -138q-4 -20 -9.5 -40t-11.5 -42h14q58 0 107 -29q55 -33 84 -94 q17 -40 17 -82q0 -37 -14 -73t-41 -66.5t-66 -46.5q-68 -31 -124.5 -58.5t-98.5 -50t-66.5 -36t-26.5 -13.5q-49 -27 -98 -27q-76 0 -129 45q-50 39 -68 99q-10 32 -9 63q0 28 7 56q0 2 2 6t2 6t2 6q-113 -68 -204 -102q-35 -13 -72 -13h-8q-41 2 -76 18.5t-63.5 46.5 t-42.5 68q-14 34 -14 69v11z" />
<glyph unicode="l" horiz-adv-x="796" d="M-204 397q2 41 19 77t46.5 64.5t68.5 43.5q35 12 118 59t226 162q43 35 79 65.5t63 55.5q31 29 57 53q62 59 139 59q28 0 58 -8q41 -10 73.5 -36.5t53.5 -61.5q29 -50 29 -102v-14q-4 -60 -23 -138q-4 -20 -9.5 -40t-11.5 -42h14q58 0 107 -29q55 -33 84 -94 q17 -40 17 -82q0 -37 -14 -73t-41 -66.5t-66 -46.5q-68 -31 -124.5 -58.5t-98.5 -50t-66.5 -36t-26.5 -13.5q-49 -27 -98 -27q-76 0 -129 45q-50 39 -68 99q-10 32 -9 63q0 28 7 56q0 2 2 6t2 6t2 6q-113 -68 -204 -102q-35 -13 -72 -13h-8q-41 2 -76 18.5t-63.5 46.5 t-42.5 68q-14 34 -14 69v11z" />
<glyph unicode="m" horiz-adv-x="796" d="M-204 397q2 41 19 77t46.5 64.5t68.5 43.5q35 12 118 59t226 162q43 35 79 65.5t63 55.5q31 29 57 53q62 59 139 59q28 0 58 -8q41 -10 73.5 -36.5t53.5 -61.5q29 -50 29 -102v-14q-4 -60 -23 -138q-4 -20 -9.5 -40t-11.5 -42h14q58 0 107 -29q55 -33 84 -94 q17 -40 17 -82q0 -37 -14 -73t-41 -66.5t-66 -46.5q-68 -31 -124.5 -58.5t-98.5 -50t-66.5 -36t-26.5 -13.5q-49 -27 -98 -27q-76 0 -129 45q-50 39 -68 99q-10 32 -9 63q0 28 7 56q0 2 2 6t2 6t2 6q-113 -68 -204 -102q-35 -13 -72 -13h-8q-41 2 -76 18.5t-63.5 46.5 t-42.5 68q-14 34 -14 69v11z" />
<glyph unicode="n" horiz-adv-x="796" d="M-204 397q2 41 19 77t46.5 64.5t68.5 43.5q35 12 118 59t226 162q43 35 79 65.5t63 55.5q31 29 57 53q62 59 139 59q28 0 58 -8q41 -10 73.5 -36.5t53.5 -61.5q29 -50 29 -102v-14q-4 -60 -23 -138q-4 -20 -9.5 -40t-11.5 -42h14q58 0 107 -29q55 -33 84 -94 q17 -40 17 -82q0 -37 -14 -73t-41 -66.5t-66 -46.5q-68 -31 -124.5 -58.5t-98.5 -50t-66.5 -36t-26.5 -13.5q-49 -27 -98 -27q-76 0 -129 45q-50 39 -68 99q-10 32 -9 63q0 28 7 56q0 2 2 6t2 6t2 6q-113 -68 -204 -102q-35 -13 -72 -13h-8q-41 2 -76 18.5t-63.5 46.5 t-42.5 68q-14 34 -14 69v11z" />
<glyph unicode="o" horiz-adv-x="796" d="M-204 397q2 41 19 77t46.5 64.5t68.5 43.5q35 12 118 59t226 162q43 35 79 65.5t63 55.5q31 29 57 53q62 59 139 59q28 0 58 -8q41 -10 73.5 -36.5t53.5 -61.5q29 -50 29 -102v-14q-4 -60 -23 -138q-4 -20 -9.5 -40t-11.5 -42h14q58 0 107 -29q55 -33 84 -94 q17 -40 17 -82q0 -37 -14 -73t-41 -66.5t-66 -46.5q-68 -31 -124.5 -58.5t-98.5 -50t-66.5 -36t-26.5 -13.5q-49 -27 -98 -27q-76 0 -129 45q-50 39 -68 99q-10 32 -9 63q0 28 7 56q0 2 2 6t2 6t2 6q-113 -68 -204 -102q-35 -13 -72 -13h-8q-41 2 -76 18.5t-63.5 46.5 t-42.5 68q-14 34 -14 69v11z" />
<glyph unicode="p" d="M-205 389q0 38 15 74q14 37 41.5 66.5t66.5 45.5q47 23 115.5 61t146.5 83q90 53 189.5 109.5t195.5 97.5q109 53 203 71q66 16 122 19h17q47 0 92 -12q113 -33 154 -140q18 -46 18 -91q0 -30 -9 -61q-21 -73 -56 -139q6 2 13 3.5t14 5.5q32 12 65 12q7 0 14 -1 q39 -3 75 -19.5t63.5 -46t42.5 -68.5q12 -36 12 -71v-10q-2 -40 -18.5 -76t-46 -63.5t-70.5 -41.5q-96 -35 -176 -63t-142 -48q-86 -25 -139 -36t-96 -11q-29 0 -64 10q-51 12 -88 46t-55 81q-16 38 -16 80q0 46 18 96q12 35 37 82q4 8 9 17.5t11 19.5q-47 -25 -92 -52.5 t-92 -51.5q-84 -51 -161 -93.5t-142 -70.5q-39 -18 -79 -19h-3q-38 0 -74 14q-37 15 -66.5 42.5t-45.5 66.5q-19 40 -19 82z" />
<glyph unicode="q" d="M-205 389q0 38 15 74q14 37 41.5 66.5t66.5 45.5q47 23 115.5 61t146.5 83q90 53 189.5 109.5t195.5 97.5q109 53 203 71q66 16 122 19h17q47 0 92 -12q113 -33 154 -140q18 -46 18 -91q0 -30 -9 -61q-21 -73 -56 -139q6 2 13 3.5t14 5.5q32 12 65 12q7 0 14 -1 q39 -3 75 -19.5t63.5 -46t42.5 -68.5q12 -36 12 -71v-10q-2 -40 -18.5 -76t-46 -63.5t-70.5 -41.5q-96 -35 -176 -63t-142 -48q-86 -25 -139 -36t-96 -11q-29 0 -64 10q-51 12 -88 46t-55 81q-16 38 -16 80q0 46 18 96q12 35 37 82q4 8 9 17.5t11 19.5q-47 -25 -92 -52.5 t-92 -51.5q-84 -51 -161 -93.5t-142 -70.5q-39 -18 -79 -19h-3q-38 0 -74 14q-37 15 -66.5 42.5t-45.5 66.5q-19 40 -19 82z" />
<glyph unicode="r" d="M-205 389q1 39 15 74q14 37 41.5 66.5t66.5 45.5q47 23 115.5 61t146.5 83q90 53 189.5 109.5t195.5 97.5q109 53 203 71q66 17 122 19h17q47 0 92 -12q113 -33 154 -140q18 -46 18 -91q-1 -31 -9 -61q-22 -74 -56 -139q6 2 13 3.5t14 5.5q32 12 65 12q8 0 14 -1 q40 -3 75.5 -19.5t63 -46t42.5 -68.5q12 -36 12 -71v-10q-2 -40 -18.5 -76t-46 -63.5t-70.5 -41.5q-96 -35 -176 -63t-142 -48q-86 -25 -139 -36t-96 -11q-29 0 -64 10q-51 12 -88 46t-55 81q-16 38 -16 80q0 45 18 96q12 35 37 82q4 8 9 17.5t11 19.5q-47 -25 -92 -52.5 t-92 -51.5q-84 -51 -161 -93.5t-142 -70.5q-39 -19 -79 -19h-3q-39 0 -74 14q-37 14 -66.5 42t-45.5 67q-19 40 -19 82z" />
<glyph unicode="s" d="M-205 389q1 39 15 74q14 37 41.5 66.5t66.5 45.5q47 23 115.5 61t146.5 83q90 53 189.5 109.5t195.5 97.5q109 53 203 71q66 17 122 19h17q47 0 92 -12q113 -33 154 -140q18 -46 18 -91q-1 -31 -9 -61q-22 -74 -56 -139q6 2 13 3.5t14 5.5q32 12 65 12q8 0 14 -1 q40 -3 75.5 -19.5t63 -46t42.5 -68.5q12 -36 12 -71v-10q-2 -40 -18.5 -76t-46 -63.5t-70.5 -41.5q-96 -35 -176 -63t-142 -48q-86 -25 -139 -36t-96 -11q-29 0 -64 10q-51 12 -88 46t-55 81q-16 38 -16 80q0 45 18 96q12 35 37 82q4 8 9 17.5t11 19.5q-47 -25 -92 -52.5 t-92 -51.5q-84 -51 -161 -93.5t-142 -70.5q-39 -19 -79 -19h-3q-39 0 -74 14q-37 14 -66.5 42t-45.5 67q-19 40 -19 82z" />
<glyph unicode="t" d="M-205 389q1 39 15 74q14 37 41.5 66.5t66.5 45.5q47 23 115.5 61t146.5 83q90 53 189.5 109.5t195.5 97.5q109 53 203 71q66 17 122 19h17q47 0 92 -12q113 -33 154 -140q18 -46 18 -91q-1 -31 -9 -61q-22 -74 -56 -139q6 2 13 3.5t14 5.5q32 12 65 12q8 0 14 -1 q40 -3 75.5 -19.5t63 -46t42.5 -68.5q12 -36 12 -71v-10q-2 -40 -18.5 -76t-46 -63.5t-70.5 -41.5q-96 -35 -176 -63t-142 -48q-86 -25 -139 -36t-96 -11q-29 0 -64 10q-51 12 -88 46t-55 81q-16 38 -16 80q0 45 18 96q12 35 37 82q4 8 9 17.5t11 19.5q-47 -25 -92 -52.5 t-92 -51.5q-84 -51 -161 -93.5t-142 -70.5q-39 -19 -79 -19h-3q-39 0 -74 14q-37 14 -66.5 42t-45.5 67q-19 40 -19 82z" />
<glyph unicode="u" horiz-adv-x="798" d="M-204 399q3 41 19.5 76t45 63.5t69.5 43.5q6 2 23.5 10t50.5 29.5t82 60.5t121 100q41 37 76.5 70t62.5 57.5t42 40t18 15.5q39 39 91 53q24 7 49 7q28 0 56 -9q88 -23 127 -103q11 -23 21 -63q3 -15 4 -31q0 -29 -11 -63q0 -4 -2 -5t-2 -6q-2 -4 -3 -10t-3 -10 q-4 -14 -11 -30.5t-15 -39.5t-17.5 -49t-21.5 -55l8 4t8 6q35 23 75 30q19 3 37 3q20 0 40 -4q38 -8 72 -30.5t57 -57.5q25 -35 32 -76q3 -19 3 -36q0 -22 -4 -43q-8 -38 -31 -72.5t-58 -57.5q-49 -33 -93 -64.5t-89 -66.5q-51 -39 -95 -71.5t-89 -57.5q-33 -18 -61.5 -29.5 t-57.5 -19.5q-45 -10 -82 -10t-78 10q-43 10 -77.5 37.5t-53.5 66.5q-14 27 -19.5 51.5t-5.5 46t2.5 38t4.5 26.5t4 21.5t6 23.5q-14 -8 -26.5 -13t-26.5 -9q-35 -12 -70 -13q-63 0 -116.5 36t-76.5 99q-12 32 -12 66q0 7 1 14z" />
<glyph unicode="v" horiz-adv-x="798" d="M-204 399q3 41 19.5 76t45 63.5t69.5 43.5q6 2 23.5 10t50.5 29.5t82 60.5t121 100q41 37 76.5 70t62.5 57.5t42 40t18 15.5q39 39 91 53q24 7 49 7q28 0 56 -9q88 -23 127 -103q11 -23 21 -63q3 -15 4 -31q0 -29 -11 -63q0 -4 -2 -5t-2 -6q-2 -4 -3 -10t-3 -10 q-4 -14 -11 -30.5t-15 -39.5t-17.5 -49t-21.5 -55l8 4t8 6q35 23 75 30q19 3 37 3q20 0 40 -4q38 -8 72 -30.5t57 -57.5q25 -35 32 -76q3 -19 3 -36q0 -22 -4 -43q-8 -38 -31 -72.5t-58 -57.5q-49 -33 -93 -64.5t-89 -66.5q-51 -39 -95 -71.5t-89 -57.5q-33 -18 -61.5 -29.5 t-57.5 -19.5q-45 -10 -82 -10t-78 10q-43 10 -77.5 37.5t-53.5 66.5q-14 27 -19.5 51.5t-5.5 46t2.5 38t4.5 26.5t4 21.5t6 23.5q-14 -8 -26.5 -13t-26.5 -9q-35 -12 -70 -13q-63 0 -116.5 36t-76.5 99q-12 32 -12 66q0 7 1 14z" />
<glyph unicode="w" horiz-adv-x="798" d="M-204 399q3 41 19.5 76t45 63.5t69.5 43.5q6 2 23.5 10t50.5 29.5t82 60.5t121 100q41 37 76.5 70t62.5 57.5t42 40t18 15.5q39 39 91 53q24 7 49 7q28 0 56 -9q88 -23 127 -103q11 -23 21 -63q3 -15 4 -31q0 -29 -11 -63q0 -4 -2 -5t-2 -6q-2 -4 -3 -10t-3 -10 q-4 -14 -11 -30.5t-15 -39.5t-17.5 -49t-21.5 -55l8 4t8 6q35 23 75 30q19 3 37 3q20 0 40 -4q38 -8 72 -30.5t57 -57.5q25 -35 32 -76q3 -19 3 -36q0 -22 -4 -43q-8 -38 -31 -72.5t-58 -57.5q-49 -33 -93 -64.5t-89 -66.5q-51 -39 -95 -71.5t-89 -57.5q-33 -18 -61.5 -29.5 t-57.5 -19.5q-45 -10 -82 -10t-78 10q-43 10 -77.5 37.5t-53.5 66.5q-14 27 -19.5 51.5t-5.5 46t2.5 38t4.5 26.5t4 21.5t6 23.5q-14 -8 -26.5 -13t-26.5 -9q-35 -12 -70 -13q-63 0 -116.5 36t-76.5 99q-12 32 -12 66q0 7 1 14z" />
<glyph unicode="x" horiz-adv-x="798" d="M-204 399q3 41 19.5 76t45 63.5t69.5 43.5q6 2 23.5 10t50.5 29.5t82 60.5t121 100q41 37 76.5 70t62.5 57.5t42 40t18 15.5q39 39 91 53q24 7 49 7q28 0 56 -9q88 -23 127 -103q11 -23 21 -63q3 -15 4 -31q0 -29 -11 -63q0 -4 -2 -5t-2 -6q-2 -4 -3 -10t-3 -10 q-4 -14 -11 -30.5t-15 -39.5t-17.5 -49t-21.5 -55l8 4t8 6q35 23 75 30q19 3 37 3q20 0 40 -4q38 -8 72 -30.5t57 -57.5q25 -35 32 -76q3 -19 3 -36q0 -22 -4 -43q-8 -38 -31 -72.5t-58 -57.5q-49 -33 -93 -64.5t-89 -66.5q-51 -39 -95 -71.5t-89 -57.5q-33 -18 -61.5 -29.5 t-57.5 -19.5q-45 -10 -82 -10t-78 10q-43 10 -77.5 37.5t-53.5 66.5q-14 27 -19.5 51.5t-5.5 46t2.5 38t4.5 26.5t4 21.5t6 23.5q-14 -8 -26.5 -13t-26.5 -9q-35 -12 -70 -13q-63 0 -116.5 36t-76.5 99q-12 32 -12 66q0 7 1 14z" />
<glyph unicode="y" horiz-adv-x="798" d="M-204 399q3 41 19.5 76t45 63.5t69.5 43.5q6 2 23.5 10t50.5 29.5t82 60.5t121 100q41 37 76.5 70t62.5 57.5t42 40t18 15.5q39 39 91 53q24 7 49 7q28 0 56 -9q88 -23 127 -103q12 -23 21 -63q4 -15 4 -31q0 -29 -11 -63q0 -4 -2 -5t-2 -6q-2 -4 -3 -10t-3 -10 q-4 -14 -11 -30.5t-15 -39.5t-17.5 -49t-21.5 -55l8 4t8 6q35 23 75 30q19 3 37 3q20 0 40 -4q38 -8 72 -30.5t57 -57.5q25 -35 32 -76q3 -19 3 -36q0 -22 -4 -43q-9 -38 -31.5 -72.5t-57.5 -57.5q-49 -33 -93 -64.5t-89 -66.5q-51 -39 -95 -71.5t-89 -57.5 q-33 -18 -61.5 -29.5t-57.5 -19.5q-45 -10 -82 -10t-78 10q-43 10 -77.5 37.5t-53.5 66.5q-14 27 -19.5 51.5t-5.5 46t2.5 38t4.5 26.5t4 21.5t6 23.5q-14 -8 -26.5 -13t-26.5 -9q-35 -12 -70 -13q-63 0 -116.5 36t-76.5 99q-12 32 -12 66q0 7 1 14z" />
<glyph unicode="z" horiz-adv-x="798" d="M-204 399q3 41 19.5 76t45 63.5t69.5 43.5q6 2 23.5 10t50.5 29.5t82 60.5t121 100q41 37 76.5 70t62.5 57.5t42 40t18 15.5q39 39 91 53q24 7 49 7q28 0 56 -9q88 -23 127 -103q11 -23 21 -63q3 -15 4 -31q0 -29 -11 -63q0 -4 -2 -5t-2 -6q-2 -4 -3 -10t-3 -10 q-4 -14 -11 -30.5t-15 -39.5t-17.5 -49t-21.5 -55l8 4t8 6q35 23 75 30q19 3 37 3q20 0 40 -4q38 -8 72 -30.5t57 -57.5q25 -35 32 -76q3 -19 3 -36q0 -22 -4 -43q-8 -38 -31 -72.5t-58 -57.5q-49 -33 -93 -64.5t-89 -66.5q-51 -39 -95 -71.5t-89 -57.5q-33 -18 -61.5 -29.5 t-57.5 -19.5q-45 -10 -82 -10t-78 10q-43 10 -77.5 37.5t-53.5 66.5q-14 27 -19.5 51.5t-5.5 46t2.5 38t4.5 26.5t4 21.5t6 23.5q-14 -8 -26.5 -13t-26.5 -9q-35 -12 -70 -13q-63 0 -116.5 36t-76.5 99q-12 32 -12 66q0 7 1 14z" />
<glyph unicode="{" horiz-adv-x="796" d="M-203.5 397q2.5 41 19 77t46 64.5t68.5 43.5q35 12 118 59t226 162q43 35 79 65.5t63 55.5q31 29 57 53q84 80 197 51q41 -10 73.5 -36.5t53.5 -61.5q33 -57 28.5 -116.5t-22.5 -137.5q-4 -20 -9.5 -40t-11.5 -42q66 4 121 -29t84 -94q16 -39 16.5 -79t-13 -76.5 t-41 -66.5t-66.5 -46q-68 -31 -124.5 -58.5t-98.5 -50t-66.5 -36t-26.5 -13.5q-49 -27 -98 -27q-76 0 -129 45q-49 39 -67.5 98.5t-2.5 119.5q0 2 2 6t2 6t2 6q-113 -68 -204 -102q-39 -14 -80 -12.5t-76 18t-63.5 46.5t-42.5 68q-16 39 -13.5 80z" />
<glyph unicode="|" horiz-adv-x="798" d="M-204 399q3 41 19.5 76t45 63.5t69.5 43.5q6 2 23.5 10t50.5 29.5t82 60.5t121 100q41 37 76.5 70t62.5 57.5t42 40t18 15.5q39 39 91 53t105 -2q88 -23 127 -103q12 -23 21.5 -63.5t-7.5 -93.5q0 -4 -2 -5t-2 -6q-2 -4 -3 -10t-3 -10q-4 -14 -11 -30.5t-15 -39.5 t-17.5 -49t-21.5 -55l8 4t8 6q35 23 75 30t77.5 -1t71.5 -30.5t57 -57.5q25 -35 32 -76t-1.5 -79t-31 -72.5t-57.5 -57.5q-49 -33 -93 -64.5t-89 -66.5q-51 -39 -95 -71.5t-89 -57.5q-33 -18 -61.5 -29.5t-57.5 -19.5q-45 -10 -82 -10t-78 10q-43 10 -77.5 37.5t-53.5 66.5 q-14 27 -19.5 51.5t-5.5 46t2.5 38t4.5 26.5t4 21.5t6 23.5q-14 -8 -26.5 -13t-26.5 -9q-35 -12 -70 -13q-63 0 -116.5 36t-76.5 99q-14 39 -11 80z" />
<glyph unicode="}" d="M-204.5 386q-0.5 40 14 77t42 66.5t66.5 45.5q47 23 115.5 61t146.5 83q90 53 189.5 109.5t195.5 97.5q109 53 203 71q66 16 122 18.5t109 -11.5q113 -33 154 -140q31 -78 9.5 -151.5t-56.5 -139.5q6 2 13 3.5t14 5.5q39 14 78.5 11t75.5 -19.5t63.5 -46t42.5 -68.5 q14 -41 12 -81t-18.5 -76t-46 -63.5t-70.5 -41.5q-96 -35 -176 -63t-142 -48q-86 -25 -139 -36t-96 -11q-29 0 -64 10q-51 12 -88 46t-55 81q-33 78 2 176q12 35 37 82q4 8 9 17.5t11 19.5q-47 -25 -92 -52.5t-92 -51.5q-84 -51 -161 -93.5t-142 -70.5q-39 -18 -79 -18.5 t-77 14t-66.5 42t-45.5 66.5q-18 39 -18.5 79z" />
<glyph unicode="~" horiz-adv-x="1089" d="M-225 389q0 49 21.5 93t58.5 79q10 10 37.5 39t50.5 57l41 45q29 31 58.5 63t57.5 60q33 29 57.5 49.5t43.5 32.5q106 66 221 41q119 -31 158 -133l-2 2q8 -18 13 -35.5t7 -36.5q29 31 51.5 58.5t40.5 50.5l29 33q4 4 6 8q2 2 4 6q47 55 111.5 79t130.5 7q45 -12 83 -45 t62 -76q29 -66 26 -111.5t-7 -62.5q-2 -10 -5.5 -19t-5.5 -18l-12 -39l-2 -6q41 -4 81 -22.5t69 -50.5q27 -33 40 -72t13 -76q0 -102 -84 -174l-10 -10q-43 -37 -91.5 -74t-101.5 -70q-121 -72 -238 -71q-49 0 -98 14q-37 8 -68.5 27.5t-54.5 48.5q-25 -20 -47 -37.5 t-51 -36.5h2q-47 -33 -90 -55.5t-82 -38.5q-35 -14 -73.5 -20.5t-73.5 -6.5q-23 0 -42.5 1t-29.5 3q-57 16 -102.5 52t-67.5 88q-14 29 -18.5 52t-4.5 48q0 33 7 64l-39 26t-31 31q-49 66 -49 139z" />
<glyph unicode="&#xa0;" horiz-adv-x="1089" d="M-225 389q0 49 21.5 93t58.5 79q10 10 37.5 39t50.5 57l41 45q29 31 58.5 63t57.5 60q33 29 57.5 49.5t43.5 32.5q106 66 221 41q119 -31 158 -133l-2 2q8 -18 13 -35.5t7 -36.5q29 31 51.5 58.5t40.5 50.5l29 33q4 4 6 8q2 2 4 6q47 55 111.5 79t130.5 7q45 -12 83 -45 t62 -76q29 -66 26 -111.5t-7 -62.5q-2 -10 -5.5 -19t-5.5 -18l-12 -39l-2 -6q41 -4 81 -22.5t69 -50.5q27 -33 40 -72t13 -76q0 -102 -84 -174l-10 -10q-43 -37 -91.5 -74t-101.5 -70q-121 -72 -238 -71q-49 0 -98 14q-37 8 -68.5 27.5t-54.5 48.5q-25 -20 -47 -37.5 t-51 -36.5h2q-47 -33 -90 -55.5t-82 -38.5q-35 -14 -73.5 -20.5t-73.5 -6.5q-23 0 -42.5 1t-29.5 3q-57 16 -102.5 52t-67.5 88q-14 29 -18.5 52t-4.5 48q0 33 7 64l-39 26t-31 31q-49 66 -49 139z" />
<glyph unicode="&#xa1;" d="M-204.5 386q-0.5 40 14 77t42 66.5t66.5 45.5q47 23 115.5 61t146.5 83q90 53 189.5 109.5t195.5 97.5q109 53 203 71q66 16 122 18.5t109 -11.5q113 -33 154 -140q31 -78 9.5 -151.5t-56.5 -139.5q6 2 13 3.5t14 5.5q39 14 78.5 11t75.5 -19.5t63.5 -46t42.5 -68.5 q14 -41 12 -81t-18.5 -76t-46 -63.5t-70.5 -41.5q-96 -35 -176 -63t-142 -48q-86 -25 -139 -36t-96 -11q-29 0 -64 10q-51 12 -88 46t-55 81q-33 78 2 176q12 35 37 82q4 8 9 17.5t11 19.5q-47 -25 -92 -52.5t-92 -51.5q-84 -51 -161 -93.5t-142 -70.5q-39 -18 -79 -18.5 t-77 14t-66.5 42t-45.5 66.5q-18 39 -18.5 79z" />
<glyph unicode="&#xa2;" horiz-adv-x="1089" d="M-225 389q0 49 21.5 93t58.5 79q10 10 37.5 39t50.5 57l41 45q29 31 58.5 63t57.5 60q33 29 57.5 49.5t43.5 32.5q106 66 221 41q119 -31 158 -133l-2 2q8 -18 13 -35.5t7 -36.5q29 31 51.5 58.5t40.5 50.5l29 33q4 4 6 8q2 2 4 6q47 55 111.5 79t130.5 7q45 -12 83 -45 t62 -76q29 -66 26 -111.5t-7 -62.5q-2 -10 -5.5 -19t-5.5 -18l-12 -39l-2 -6q41 -4 81 -22.5t69 -50.5q27 -33 40 -72t13 -76q0 -102 -84 -174l-10 -10q-43 -37 -91.5 -74t-101.5 -70q-121 -72 -238 -71q-49 0 -98 14q-37 8 -68.5 27.5t-54.5 48.5q-25 -20 -47 -37.5 t-51 -36.5h2q-47 -33 -90 -55.5t-82 -38.5q-35 -14 -73.5 -20.5t-73.5 -6.5q-23 0 -42.5 1t-29.5 3q-57 16 -102.5 52t-67.5 88q-14 29 -18.5 52t-4.5 48q0 33 7 64l-39 26t-31 31q-49 66 -49 139z" />
<glyph unicode="&#xa3;" horiz-adv-x="1089" d="M-225 389q0 49 21.5 93t58.5 79q10 10 37.5 39t50.5 57l41 45q29 31 58.5 63t57.5 60q33 29 57.5 49.5t43.5 32.5q106 66 221 41q119 -31 158 -133l-2 2q8 -18 13 -35.5t7 -36.5q29 31 51.5 58.5t40.5 50.5l29 33q4 4 6 8q2 2 4 6q47 55 111.5 79t130.5 7q45 -12 83 -45 t62 -76q29 -66 26 -111.5t-7 -62.5q-2 -10 -5.5 -19t-5.5 -18l-12 -39l-2 -6q41 -4 81 -22.5t69 -50.5q27 -33 40 -72t13 -76q0 -102 -84 -174l-10 -10q-43 -37 -91.5 -74t-101.5 -70q-121 -72 -238 -71q-49 0 -98 14q-37 8 -68.5 27.5t-54.5 48.5q-25 -20 -47 -37.5 t-51 -36.5h2q-47 -33 -90 -55.5t-82 -38.5q-35 -14 -73.5 -20.5t-73.5 -6.5q-23 0 -42.5 1t-29.5 3q-57 16 -102.5 52t-67.5 88q-14 29 -18.5 52t-4.5 48q0 33 7 64l-39 26t-31 31q-49 66 -49 139z" />
<glyph unicode="&#xa4;" horiz-adv-x="1089" d="M-225 389q0 49 21.5 93t58.5 79q10 10 37.5 39t50.5 57l41 45q29 31 58.5 63t57.5 60q33 29 57.5 49.5t43.5 32.5q106 66 221 41q119 -31 158 -133l-2 2q8 -18 13 -35.5t7 -36.5q29 31 51.5 58.5t40.5 50.5l29 33q4 4 6 8q2 2 4 6q47 55 111.5 79t130.5 7q45 -12 83 -45 t62 -76q29 -66 26 -111.5t-7 -62.5q-2 -10 -5.5 -19t-5.5 -18l-12 -39l-2 -6q41 -4 81 -22.5t69 -50.5q27 -33 40 -72t13 -76q0 -102 -84 -174l-10 -10q-43 -37 -91.5 -74t-101.5 -70q-121 -72 -238 -71q-49 0 -98 14q-37 8 -68.5 27.5t-54.5 48.5q-25 -20 -47 -37.5 t-51 -36.5h2q-47 -33 -90 -55.5t-82 -38.5q-35 -14 -73.5 -20.5t-73.5 -6.5q-23 0 -42.5 1t-29.5 3q-57 16 -102.5 52t-67.5 88q-14 29 -18.5 52t-4.5 48q0 33 7 64l-39 26t-31 31q-49 66 -49 139z" />
<glyph unicode="&#xa5;" horiz-adv-x="1089" d="M-225 389q0 49 21.5 93t58.5 79q10 10 37.5 39t50.5 57l41 45q29 31 58.5 63t57.5 60q33 29 57.5 49.5t43.5 32.5q106 66 221 41q119 -31 158 -133l-2 2q8 -18 13 -35.5t7 -36.5q29 31 51.5 58.5t40.5 50.5l29 33q4 4 6 8q2 2 4 6q47 55 111.5 79t130.5 7q45 -12 83 -45 t62 -76q29 -66 26 -111.5t-7 -62.5q-2 -10 -5.5 -19t-5.5 -18l-12 -39l-2 -6q41 -4 81 -22.5t69 -50.5q27 -33 40 -72t13 -76q0 -102 -84 -174l-10 -10q-43 -37 -91.5 -74t-101.5 -70q-121 -72 -238 -71q-49 0 -98 14q-37 8 -68.5 27.5t-54.5 48.5q-25 -20 -47 -37.5 t-51 -36.5h2q-47 -33 -90 -55.5t-82 -38.5q-35 -14 -73.5 -20.5t-73.5 -6.5q-23 0 -42.5 1t-29.5 3q-57 16 -102.5 52t-67.5 88q-14 29 -18.5 52t-4.5 48q0 33 7 64l-39 26t-31 31q-49 66 -49 139z" />
<glyph unicode="&#xa6;" horiz-adv-x="1089" d="M-225 389q0 49 21.5 93t58.5 79q10 10 37.5 39t50.5 57l41 45q29 31 58.5 63t57.5 60q33 29 57.5 49.5t43.5 32.5q106 66 221 41q119 -31 158 -133l-2 2q8 -18 13 -35.5t7 -36.5q29 31 51.5 58.5t40.5 50.5l29 33q4 4 6 8q2 2 4 6q47 55 111.5 79t130.5 7q45 -12 83 -45 t62 -76q29 -66 26 -111.5t-7 -62.5q-2 -10 -5.5 -19t-5.5 -18l-12 -39l-2 -6q41 -4 81 -22.5t69 -50.5q27 -33 40 -72t13 -76q0 -102 -84 -174l-10 -10q-43 -37 -91.5 -74t-101.5 -70q-121 -72 -238 -71q-49 0 -98 14q-37 8 -68.5 27.5t-54.5 48.5q-25 -20 -47 -37.5 t-51 -36.5h2q-47 -33 -90 -55.5t-82 -38.5q-35 -14 -73.5 -20.5t-73.5 -6.5q-23 0 -42.5 1t-29.5 3q-57 16 -102.5 52t-67.5 88q-14 29 -18.5 52t-4.5 48q0 33 7 64l-39 26t-31 31q-49 66 -49 139z" />
<glyph unicode="&#xa7;" horiz-adv-x="563" d="M-204 402q3 40 20.5 76t48.5 65q23 18 48.5 42.5t53.5 53.5q49 49 103.5 99t105.5 91q35 27 66.5 47.5t60.5 34.5q106 51 209 29q55 -16 97 -55t65 -94q29 -82 -2 -173q-4 -10 -8.5 -20t-10.5 -23q74 -35 107 -114q14 -41 12 -82t-18.5 -77t-46 -63.5t-70.5 -41.5 q-66 -25 -118 -44.5t-89 -31.5q-23 -8 -39 -14.5t-26 -10.5q-20 -4 -43 -10t-50 -6q-25 0 -55 6q-47 12 -84 42t-59 71q-57 -23 -120 -9.5t-108 64.5q-29 31 -41 69.5t-9 78.5z" />
<glyph unicode="&#xa8;" horiz-adv-x="563" d="M-204 402q3 40 20.5 76t48.5 65q23 18 48.5 42.5t53.5 53.5q49 49 103.5 99t105.5 91q35 27 66.5 47.5t60.5 34.5q106 51 209 29q55 -16 97 -55t65 -94q29 -82 -2 -173q-4 -10 -8.5 -20t-10.5 -23q74 -35 107 -114q14 -41 12 -82t-18.5 -77t-46 -63.5t-70.5 -41.5 q-66 -25 -118 -44.5t-89 -31.5q-23 -8 -39 -14.5t-26 -10.5q-20 -4 -43 -10t-50 -6q-25 0 -55 6q-47 12 -84 42t-59 71q-57 -23 -120 -9.5t-108 64.5q-29 31 -41 69.5t-9 78.5z" />
<glyph unicode="&#xa9;" horiz-adv-x="563" d="M-204 402q3 40 20.5 76t48.5 65q23 18 48.5 42.5t53.5 53.5q49 49 103.5 99t105.5 91q35 27 66.5 47.5t60.5 34.5q106 51 209 29q55 -16 97 -55t65 -94q29 -82 -2 -173q-4 -10 -8.5 -20t-10.5 -23q74 -35 107 -114q14 -41 12 -82t-18.5 -77t-46 -63.5t-70.5 -41.5 q-66 -25 -118 -44.5t-89 -31.5q-23 -8 -39 -14.5t-26 -10.5q-20 -4 -43 -10t-50 -6q-25 0 -55 6q-47 12 -84 42t-59 71q-57 -23 -120 -9.5t-108 64.5q-29 31 -41 69.5t-9 78.5z" />
<glyph unicode="&#xaa;" horiz-adv-x="563" d="M-204 402q3 40 20.5 76t48.5 65q23 18 48.5 42.5t53.5 53.5q49 49 103.5 99t105.5 91q35 27 66.5 47.5t60.5 34.5q106 51 209 29q55 -16 97 -55t65 -94q29 -82 -2 -173q-4 -10 -8.5 -20t-10.5 -23q74 -35 107 -114q14 -41 12 -82t-18.5 -77t-46 -63.5t-70.5 -41.5 q-66 -25 -118 -44.5t-89 -31.5q-23 -8 -39 -14.5t-26 -10.5q-20 -4 -43 -10t-50 -6q-25 0 -55 6q-47 12 -84 42t-59 71q-57 -23 -120 -9.5t-108 64.5q-29 31 -41 69.5t-9 78.5z" />
<glyph unicode="&#xab;" horiz-adv-x="563" d="M-204 402q3 40 20.5 76t48.5 65q23 18 48.5 42.5t53.5 53.5q49 49 103.5 99t105.5 91q35 27 66.5 47.5t60.5 34.5q106 51 209 29q55 -16 97 -55t65 -94q29 -82 -2 -173q-4 -10 -8.5 -20t-10.5 -23q74 -35 107 -114q14 -41 12 -82t-18.5 -77t-46 -63.5t-70.5 -41.5 q-66 -25 -118 -44.5t-89 -31.5q-23 -8 -39 -14.5t-26 -10.5q-20 -4 -43 -10t-50 -6q-25 0 -55 6q-47 12 -84 42t-59 71q-57 -23 -120 -9.5t-108 64.5q-29 31 -41 69.5t-9 78.5z" />
<glyph unicode="&#xac;" horiz-adv-x="796" d="M-203.5 397q2.5 41 19 77t46 64.5t68.5 43.5q35 12 118 59t226 162q43 35 79 65.5t63 55.5q31 29 57 53q84 80 197 51q41 -10 73.5 -36.5t53.5 -61.5q33 -57 28.5 -116.5t-22.5 -137.5q-4 -20 -9.5 -40t-11.5 -42q66 4 121 -29t84 -94q16 -39 16.5 -79t-13 -76.5 t-41 -66.5t-66.5 -46q-68 -31 -124.5 -58.5t-98.5 -50t-66.5 -36t-26.5 -13.5q-49 -27 -98 -27q-76 0 -129 45q-49 39 -67.5 98.5t-2.5 119.5q0 2 2 6t2 6t2 6q-113 -68 -204 -102q-39 -14 -80 -12.5t-76 18t-63.5 46.5t-42.5 68q-16 39 -13.5 80z" />
<glyph unicode="&#xad;" horiz-adv-x="796" d="M-203.5 397q2.5 41 19 77t46 64.5t68.5 43.5q35 12 118 59t226 162q43 35 79 65.5t63 55.5q31 29 57 53q84 80 197 51q41 -10 73.5 -36.5t53.5 -61.5q33 -57 28.5 -116.5t-22.5 -137.5q-4 -20 -9.5 -40t-11.5 -42q66 4 121 -29t84 -94q16 -39 16.5 -79t-13 -76.5 t-41 -66.5t-66.5 -46q-68 -31 -124.5 -58.5t-98.5 -50t-66.5 -36t-26.5 -13.5q-49 -27 -98 -27q-76 0 -129 45q-49 39 -67.5 98.5t-2.5 119.5q0 2 2 6t2 6t2 6q-113 -68 -204 -102q-39 -14 -80 -12.5t-76 18t-63.5 46.5t-42.5 68q-16 39 -13.5 80z" />
<glyph unicode="&#xae;" horiz-adv-x="796" d="M-203.5 397q2.5 41 19 77t46 64.5t68.5 43.5q35 12 118 59t226 162q43 35 79 65.5t63 55.5q31 29 57 53q84 80 197 51q41 -10 73.5 -36.5t53.5 -61.5q33 -57 28.5 -116.5t-22.5 -137.5q-4 -20 -9.5 -40t-11.5 -42q66 4 121 -29t84 -94q16 -39 16.5 -79t-13 -76.5 t-41 -66.5t-66.5 -46q-68 -31 -124.5 -58.5t-98.5 -50t-66.5 -36t-26.5 -13.5q-49 -27 -98 -27q-76 0 -129 45q-49 39 -67.5 98.5t-2.5 119.5q0 2 2 6t2 6t2 6q-113 -68 -204 -102q-39 -14 -80 -12.5t-76 18t-63.5 46.5t-42.5 68q-16 39 -13.5 80z" />
<glyph unicode="&#xaf;" horiz-adv-x="796" d="M-203.5 397q2.5 41 19 77t46 64.5t68.5 43.5q35 12 118 59t226 162q43 35 79 65.5t63 55.5q31 29 57 53q84 80 197 51q41 -10 73.5 -36.5t53.5 -61.5q33 -57 28.5 -116.5t-22.5 -137.5q-4 -20 -9.5 -40t-11.5 -42q66 4 121 -29t84 -94q16 -39 16.5 -79t-13 -76.5 t-41 -66.5t-66.5 -46q-68 -31 -124.5 -58.5t-98.5 -50t-66.5 -36t-26.5 -13.5q-49 -27 -98 -27q-76 0 -129 45q-49 39 -67.5 98.5t-2.5 119.5q0 2 2 6t2 6t2 6q-113 -68 -204 -102q-39 -14 -80 -12.5t-76 18t-63.5 46.5t-42.5 68q-16 39 -13.5 80z" />
<glyph unicode="&#xb0;" horiz-adv-x="796" d="M-203.5 397q2.5 41 19 77t46 64.5t68.5 43.5q35 12 118 59t226 162q43 35 79 65.5t63 55.5q31 29 57 53q84 80 197 51q41 -10 73.5 -36.5t53.5 -61.5q33 -57 28.5 -116.5t-22.5 -137.5q-4 -20 -9.5 -40t-11.5 -42q66 4 121 -29t84 -94q16 -39 16.5 -79t-13 -76.5 t-41 -66.5t-66.5 -46q-68 -31 -124.5 -58.5t-98.5 -50t-66.5 -36t-26.5 -13.5q-49 -27 -98 -27q-76 0 -129 45q-49 39 -67.5 98.5t-2.5 119.5q0 2 2 6t2 6t2 6q-113 -68 -204 -102q-39 -14 -80 -12.5t-76 18t-63.5 46.5t-42.5 68q-16 39 -13.5 80z" />
<glyph unicode="&#xb1;" d="M-204.5 386q-0.5 40 14 77t42 66.5t66.5 45.5q47 23 115.5 61t146.5 83q90 53 189.5 109.5t195.5 97.5q109 53 203 71q66 16 122 18.5t109 -11.5q113 -33 154 -140q31 -78 9.5 -151.5t-56.5 -139.5q6 2 13 3.5t14 5.5q39 14 78.5 11t75.5 -19.5t63.5 -46t42.5 -68.5 q14 -41 12 -81t-18.5 -76t-46 -63.5t-70.5 -41.5q-96 -35 -176 -63t-142 -48q-86 -25 -139 -36t-96 -11q-29 0 -64 10q-51 12 -88 46t-55 81q-33 78 2 176q12 35 37 82q4 8 9 17.5t11 19.5q-47 -25 -92 -52.5t-92 -51.5q-84 -51 -161 -93.5t-142 -70.5q-39 -18 -79 -18.5 t-77 14t-66.5 42t-45.5 66.5q-18 39 -18.5 79z" />
<glyph unicode="&#xb2;" d="M-204.5 386q-0.5 40 14 77t42 66.5t66.5 45.5q47 23 115.5 61t146.5 83q90 53 189.5 109.5t195.5 97.5q109 53 203 71q66 16 122 18.5t109 -11.5q113 -33 154 -140q31 -78 9.5 -151.5t-56.5 -139.5q6 2 13 3.5t14 5.5q39 14 78.5 11t75.5 -19.5t63.5 -46t42.5 -68.5 q14 -41 12 -81t-18.5 -76t-46 -63.5t-70.5 -41.5q-96 -35 -176 -63t-142 -48q-86 -25 -139 -36t-96 -11q-29 0 -64 10q-51 12 -88 46t-55 81q-33 78 2 176q12 35 37 82q4 8 9 17.5t11 19.5q-47 -25 -92 -52.5t-92 -51.5q-84 -51 -161 -93.5t-142 -70.5q-39 -18 -79 -18.5 t-77 14t-66.5 42t-45.5 66.5q-18 39 -18.5 79z" />
<glyph unicode="&#xb3;" d="M-204.5 386q-0.5 40 14 77t42 66.5t66.5 45.5q47 23 115.5 61t146.5 83q90 53 189.5 109.5t195.5 97.5q109 53 203 71q66 16 122 18.5t109 -11.5q113 -33 154 -140q31 -78 9.5 -151.5t-56.5 -139.5q6 2 13 3.5t14 5.5q39 14 78.5 11t75.5 -19.5t63.5 -46t42.5 -68.5 q14 -41 12 -81t-18.5 -76t-46 -63.5t-70.5 -41.5q-96 -35 -176 -63t-142 -48q-86 -25 -139 -36t-96 -11q-29 0 -64 10q-51 12 -88 46t-55 81q-33 78 2 176q12 35 37 82q4 8 9 17.5t11 19.5q-47 -25 -92 -52.5t-92 -51.5q-84 -51 -161 -93.5t-142 -70.5q-39 -18 -79 -18.5 t-77 14t-66.5 42t-45.5 66.5q-18 39 -18.5 79z" />
<glyph unicode="&#xb4;" d="M-204.5 386q-0.5 40 14 77t42 66.5t66.5 45.5q47 23 115.5 61t146.5 83q90 53 189.5 109.5t195.5 97.5q109 53 203 71q66 16 122 18.5t109 -11.5q113 -33 154 -140q31 -78 9.5 -151.5t-56.5 -139.5q6 2 13 3.5t14 5.5q39 14 78.5 11t75.5 -19.5t63.5 -46t42.5 -68.5 q14 -41 12 -81t-18.5 -76t-46 -63.5t-70.5 -41.5q-96 -35 -176 -63t-142 -48q-86 -25 -139 -36t-96 -11q-29 0 -64 10q-51 12 -88 46t-55 81q-33 78 2 176q12 35 37 82q4 8 9 17.5t11 19.5q-47 -25 -92 -52.5t-92 -51.5q-84 -51 -161 -93.5t-142 -70.5q-39 -18 -79 -18.5 t-77 14t-66.5 42t-45.5 66.5q-18 39 -18.5 79z" />
<glyph unicode="&#xb5;" d="M-204.5 386q-0.5 40 14 77t42 66.5t66.5 45.5q47 23 115.5 61t146.5 83q90 53 189.5 109.5t195.5 97.5q109 53 203 71q66 16 122 18.5t109 -11.5q113 -33 154 -140q31 -78 9.5 -151.5t-56.5 -139.5q6 2 13 3.5t14 5.5q39 14 78.5 11t75.5 -19.5t63.5 -46t42.5 -68.5 q14 -41 12 -81t-18.5 -76t-46 -63.5t-70.5 -41.5q-96 -35 -176 -63t-142 -48q-86 -25 -139 -36t-96 -11q-29 0 -64 10q-51 12 -88 46t-55 81q-33 78 2 176q12 35 37 82q4 8 9 17.5t11 19.5q-47 -25 -92 -52.5t-92 -51.5q-84 -51 -161 -93.5t-142 -70.5q-39 -18 -79 -18.5 t-77 14t-66.5 42t-45.5 66.5q-18 39 -18.5 79z" />
<glyph unicode="&#xb6;" horiz-adv-x="798" d="M-204 399q3 41 19.5 76t45 63.5t69.5 43.5q6 2 23.5 10t50.5 29.5t82 60.5t121 100q41 37 76.5 70t62.5 57.5t42 40t18 15.5q39 39 91 53t105 -2q88 -23 127 -103q12 -23 21.5 -63.5t-7.5 -93.5q0 -4 -2 -5t-2 -6q-2 -4 -3 -10t-3 -10q-4 -14 -11 -30.5t-15 -39.5 t-17.5 -49t-21.5 -55l8 4t8 6q35 23 75 30t77.5 -1t71.5 -30.5t57 -57.5q25 -35 32 -76t-1.5 -79t-31 -72.5t-57.5 -57.5q-49 -33 -93 -64.5t-89 -66.5q-51 -39 -95 -71.5t-89 -57.5q-33 -18 -61.5 -29.5t-57.5 -19.5q-45 -10 -82 -10t-78 10q-43 10 -77.5 37.5t-53.5 66.5 q-14 27 -19.5 51.5t-5.5 46t2.5 38t4.5 26.5t4 21.5t6 23.5q-14 -8 -26.5 -13t-26.5 -9q-35 -12 -70 -13q-63 0 -116.5 36t-76.5 99q-14 39 -11 80z" />
<glyph unicode="&#xb7;" horiz-adv-x="798" d="M-204 399q3 41 19.5 76t45 63.5t69.5 43.5q6 2 23.5 10t50.5 29.5t82 60.5t121 100q41 37 76.5 70t62.5 57.5t42 40t18 15.5q39 39 91 53t105 -2q88 -23 127 -103q12 -23 21.5 -63.5t-7.5 -93.5q0 -4 -2 -5t-2 -6q-2 -4 -3 -10t-3 -10q-4 -14 -11 -30.5t-15 -39.5 t-17.5 -49t-21.5 -55l8 4t8 6q35 23 75 30t77.5 -1t71.5 -30.5t57 -57.5q25 -35 32 -76t-1.5 -79t-31 -72.5t-57.5 -57.5q-49 -33 -93 -64.5t-89 -66.5q-51 -39 -95 -71.5t-89 -57.5q-33 -18 -61.5 -29.5t-57.5 -19.5q-45 -10 -82 -10t-78 10q-43 10 -77.5 37.5t-53.5 66.5 q-14 27 -19.5 51.5t-5.5 46t2.5 38t4.5 26.5t4 21.5t6 23.5q-14 -8 -26.5 -13t-26.5 -9q-35 -12 -70 -13q-63 0 -116.5 36t-76.5 99q-14 39 -11 80z" />
<glyph unicode="&#xb8;" horiz-adv-x="798" d="M-204 399q3 41 19.5 76t45 63.5t69.5 43.5q6 2 23.5 10t50.5 29.5t82 60.5t121 100q41 37 76.5 70t62.5 57.5t42 40t18 15.5q39 39 91 53t105 -2q88 -23 127 -103q12 -23 21.5 -63.5t-7.5 -93.5q0 -4 -2 -5t-2 -6q-2 -4 -3 -10t-3 -10q-4 -14 -11 -30.5t-15 -39.5 t-17.5 -49t-21.5 -55l8 4t8 6q35 23 75 30t77.5 -1t71.5 -30.5t57 -57.5q25 -35 32 -76t-1.5 -79t-31 -72.5t-57.5 -57.5q-49 -33 -93 -64.5t-89 -66.5q-51 -39 -95 -71.5t-89 -57.5q-33 -18 -61.5 -29.5t-57.5 -19.5q-45 -10 -82 -10t-78 10q-43 10 -77.5 37.5t-53.5 66.5 q-14 27 -19.5 51.5t-5.5 46t2.5 38t4.5 26.5t4 21.5t6 23.5q-14 -8 -26.5 -13t-26.5 -9q-35 -12 -70 -13q-63 0 -116.5 36t-76.5 99q-14 39 -11 80z" />
<glyph unicode="&#xb9;" horiz-adv-x="798" d="M-204 399q3 41 19.5 76t45 63.5t69.5 43.5q6 2 23.5 10t50.5 29.5t82 60.5t121 100q41 37 76.5 70t62.5 57.5t42 40t18 15.5q39 39 91 53t105 -2q88 -23 127 -103q12 -23 21.5 -63.5t-7.5 -93.5q0 -4 -2 -5t-2 -6q-2 -4 -3 -10t-3 -10q-4 -14 -11 -30.5t-15 -39.5 t-17.5 -49t-21.5 -55l8 4t8 6q35 23 75 30t77.5 -1t71.5 -30.5t57 -57.5q25 -35 32 -76t-1.5 -79t-31 -72.5t-57.5 -57.5q-49 -33 -93 -64.5t-89 -66.5q-51 -39 -95 -71.5t-89 -57.5q-33 -18 -61.5 -29.5t-57.5 -19.5q-45 -10 -82 -10t-78 10q-43 10 -77.5 37.5t-53.5 66.5 q-14 27 -19.5 51.5t-5.5 46t2.5 38t4.5 26.5t4 21.5t6 23.5q-14 -8 -26.5 -13t-26.5 -9q-35 -12 -70 -13q-63 0 -116.5 36t-76.5 99q-14 39 -11 80z" />
<glyph unicode="&#xba;" horiz-adv-x="798" d="M-204 399q3 41 19.5 76t45 63.5t69.5 43.5q6 2 23.5 10t50.5 29.5t82 60.5t121 100q41 37 76.5 70t62.5 57.5t42 40t18 15.5q39 39 91 53t105 -2q88 -23 127 -103q12 -23 21.5 -63.5t-7.5 -93.5q0 -4 -2 -5t-2 -6q-2 -4 -3 -10t-3 -10q-4 -14 -11 -30.5t-15 -39.5 t-17.5 -49t-21.5 -55l8 4t8 6q35 23 75 30t77.5 -1t71.5 -30.5t57 -57.5q25 -35 32 -76t-1.5 -79t-31 -72.5t-57.5 -57.5q-49 -33 -93 -64.5t-89 -66.5q-51 -39 -95 -71.5t-89 -57.5q-33 -18 -61.5 -29.5t-57.5 -19.5q-45 -10 -82 -10t-78 10q-43 10 -77.5 37.5t-53.5 66.5 q-14 27 -19.5 51.5t-5.5 46t2.5 38t4.5 26.5t4 21.5t6 23.5q-14 -8 -26.5 -13t-26.5 -9q-35 -12 -70 -13q-63 0 -116.5 36t-76.5 99q-14 39 -11 80z" />
<glyph unicode="&#xbb;" horiz-adv-x="798" d="M-204 399q3 41 19.5 76t45 63.5t69.5 43.5q6 2 23.5 10t50.5 29.5t82 60.5t121 100q41 37 76.5 70t62.5 57.5t42 40t18 15.5q39 39 91 53t105 -2q88 -23 127 -103q12 -23 21.5 -63.5t-7.5 -93.5q0 -4 -2 -5t-2 -6q-2 -4 -3 -10t-3 -10q-4 -14 -11 -30.5t-15 -39.5 t-17.5 -49t-21.5 -55l8 4t8 6q35 23 75 30t77.5 -1t71.5 -30.5t57 -57.5q25 -35 32 -76t-1.5 -79t-31 -72.5t-57.5 -57.5q-49 -33 -93 -64.5t-89 -66.5q-51 -39 -95 -71.5t-89 -57.5q-33 -18 -61.5 -29.5t-57.5 -19.5q-45 -10 -82 -10t-78 10q-43 10 -77.5 37.5t-53.5 66.5 q-14 27 -19.5 51.5t-5.5 46t2.5 38t4.5 26.5t4 21.5t6 23.5q-14 -8 -26.5 -13t-26.5 -9q-35 -12 -70 -13q-63 0 -116.5 36t-76.5 99q-14 39 -11 80z" />
<glyph unicode="&#xbc;" horiz-adv-x="796" d="M-203.5 397q2.5 41 19 77t46 64.5t68.5 43.5q35 12 118 59t226 162q43 35 79 65.5t63 55.5q31 29 57 53q84 80 197 51q41 -10 73.5 -36.5t53.5 -61.5q33 -57 28.5 -116.5t-22.5 -137.5q-4 -20 -9.5 -40t-11.5 -42q66 4 121 -29t84 -94q16 -39 16.5 -79t-13 -76.5 t-41 -66.5t-66.5 -46q-68 -31 -124.5 -58.5t-98.5 -50t-66.5 -36t-26.5 -13.5q-49 -27 -98 -27q-76 0 -129 45q-49 39 -67.5 98.5t-2.5 119.5q0 2 2 6t2 6t2 6q-113 -68 -204 -102q-39 -14 -80 -12.5t-76 18t-63.5 46.5t-42.5 68q-16 39 -13.5 80z" />
<glyph unicode="&#xbd;" horiz-adv-x="798" d="M-204 399q3 41 19.5 76t45 63.5t69.5 43.5q6 2 23.5 10t50.5 29.5t82 60.5t121 100q41 37 76.5 70t62.5 57.5t42 40t18 15.5q39 39 91 53t105 -2q88 -23 127 -103q12 -23 21.5 -63.5t-7.5 -93.5q0 -4 -2 -5t-2 -6q-2 -4 -3 -10t-3 -10q-4 -14 -11 -30.5t-15 -39.5 t-17.5 -49t-21.5 -55l8 4t8 6q35 23 75 30t77.5 -1t71.5 -30.5t57 -57.5q25 -35 32 -76t-1.5 -79t-31 -72.5t-57.5 -57.5q-49 -33 -93 -64.5t-89 -66.5q-51 -39 -95 -71.5t-89 -57.5q-33 -18 -61.5 -29.5t-57.5 -19.5q-45 -10 -82 -10t-78 10q-43 10 -77.5 37.5t-53.5 66.5 q-14 27 -19.5 51.5t-5.5 46t2.5 38t4.5 26.5t4 21.5t6 23.5q-14 -8 -26.5 -13t-26.5 -9q-35 -12 -70 -13q-63 0 -116.5 36t-76.5 99q-14 39 -11 80z" />
<glyph unicode="&#xbe;" d="M-204.5 386q-0.5 40 14 77t42 66.5t66.5 45.5q47 23 115.5 61t146.5 83q90 53 189.5 109.5t195.5 97.5q109 53 203 71q66 16 122 18.5t109 -11.5q113 -33 154 -140q31 -78 9.5 -151.5t-56.5 -139.5q6 2 13 3.5t14 5.5q39 14 78.5 11t75.5 -19.5t63.5 -46t42.5 -68.5 q14 -41 12 -81t-18.5 -76t-46 -63.5t-70.5 -41.5q-96 -35 -176 -63t-142 -48q-86 -25 -139 -36t-96 -11q-29 0 -64 10q-51 12 -88 46t-55 81q-33 78 2 176q12 35 37 82q4 8 9 17.5t11 19.5q-47 -25 -92 -52.5t-92 -51.5q-84 -51 -161 -93.5t-142 -70.5q-39 -18 -79 -18.5 t-77 14t-66.5 42t-45.5 66.5q-18 39 -18.5 79z" />
<glyph unicode="&#xbf;" horiz-adv-x="1089" d="M-225 389q0 49 21.5 93t58.5 79q10 10 37.5 39t50.5 57l41 45q29 31 58.5 63t57.5 60q33 29 57.5 49.5t43.5 32.5q106 66 221 41q119 -31 158 -133l-2 2q8 -18 13 -35.5t7 -36.5q29 31 51.5 58.5t40.5 50.5l29 33q4 4 6 8q2 2 4 6q47 55 111.5 79t130.5 7q45 -12 83 -45 t62 -76q29 -66 26 -111.5t-7 -62.5q-2 -10 -5.5 -19t-5.5 -18l-12 -39l-2 -6q41 -4 81 -22.5t69 -50.5q27 -33 40 -72t13 -76q0 -102 -84 -174l-10 -10q-43 -37 -91.5 -74t-101.5 -70q-121 -72 -238 -71q-49 0 -98 14q-37 8 -68.5 27.5t-54.5 48.5q-25 -20 -47 -37.5 t-51 -36.5h2q-47 -33 -90 -55.5t-82 -38.5q-35 -14 -73.5 -20.5t-73.5 -6.5q-23 0 -42.5 1t-29.5 3q-57 16 -102.5 52t-67.5 88q-14 29 -18.5 52t-4.5 48q0 33 7 64l-39 26t-31 31q-49 66 -49 139z" />
<glyph unicode="&#xc0;" horiz-adv-x="1089" d="M-225 389q0 49 21.5 93t58.5 79q10 10 37.5 39t50.5 57l41 45q29 31 58.5 63t57.5 60q33 29 57.5 49.5t43.5 32.5q106 66 221 41q119 -31 158 -133l-2 2q8 -18 13 -35.5t7 -36.5q29 31 51.5 58.5t40.5 50.5l29 33q4 4 6 8q2 2 4 6q47 55 111.5 79t130.5 7q45 -12 83 -45 t62 -76q29 -66 26 -111.5t-7 -62.5q-2 -10 -5.5 -19t-5.5 -18l-12 -39l-2 -6q41 -4 81 -22.5t69 -50.5q27 -33 40 -72t13 -76q0 -102 -84 -174l-10 -10q-43 -37 -91.5 -74t-101.5 -70q-121 -72 -238 -71q-49 0 -98 14q-37 8 -68.5 27.5t-54.5 48.5q-25 -20 -47 -37.5 t-51 -36.5h2q-47 -33 -90 -55.5t-82 -38.5q-35 -14 -73.5 -20.5t-73.5 -6.5q-23 0 -42.5 1t-29.5 3q-57 16 -102.5 52t-67.5 88q-14 29 -18.5 52t-4.5 48q0 33 7 64l-39 26t-31 31q-49 66 -49 139z" />
<glyph unicode="&#xc1;" d="M-204.5 386q-0.5 40 14 77t42 66.5t66.5 45.5q47 23 115.5 61t146.5 83q90 53 189.5 109.5t195.5 97.5q109 53 203 71q66 16 122 18.5t109 -11.5q113 -33 154 -140q31 -78 9.5 -151.5t-56.5 -139.5q6 2 13 3.5t14 5.5q39 14 78.5 11t75.5 -19.5t63.5 -46t42.5 -68.5 q14 -41 12 -81t-18.5 -76t-46 -63.5t-70.5 -41.5q-96 -35 -176 -63t-142 -48q-86 -25 -139 -36t-96 -11q-29 0 -64 10q-51 12 -88 46t-55 81q-33 78 2 176q12 35 37 82q4 8 9 17.5t11 19.5q-47 -25 -92 -52.5t-92 -51.5q-84 -51 -161 -93.5t-142 -70.5q-39 -18 -79 -18.5 t-77 14t-66.5 42t-45.5 66.5q-18 39 -18.5 79z" />
<glyph unicode="&#xc2;" horiz-adv-x="1089" d="M-225 389q0 49 21.5 93t58.5 79q10 10 37.5 39t50.5 57l41 45q29 31 58.5 63t57.5 60q33 29 57.5 49.5t43.5 32.5q106 66 221 41q119 -31 158 -133l-2 2q8 -18 13 -35.5t7 -36.5q29 31 51.5 58.5t40.5 50.5l29 33q4 4 6 8q2 2 4 6q47 55 111.5 79t130.5 7q45 -12 83 -45 t62 -76q29 -66 26 -111.5t-7 -62.5q-2 -10 -5.5 -19t-5.5 -18l-12 -39l-2 -6q41 -4 81 -22.5t69 -50.5q27 -33 40 -72t13 -76q0 -102 -84 -174l-10 -10q-43 -37 -91.5 -74t-101.5 -70q-121 -72 -238 -71q-49 0 -98 14q-37 8 -68.5 27.5t-54.5 48.5q-25 -20 -47 -37.5 t-51 -36.5h2q-47 -33 -90 -55.5t-82 -38.5q-35 -14 -73.5 -20.5t-73.5 -6.5q-23 0 -42.5 1t-29.5 3q-57 16 -102.5 52t-67.5 88q-14 29 -18.5 52t-4.5 48q0 33 7 64l-39 26t-31 31q-49 66 -49 139z" />
<glyph unicode="&#xc3;" horiz-adv-x="1089" d="M-225 389q0 49 21.5 93t58.5 79q10 10 37.5 39t50.5 57l41 45q29 31 58.5 63t57.5 60q33 29 57.5 49.5t43.5 32.5q106 66 221 41q119 -31 158 -133l-2 2q8 -18 13 -35.5t7 -36.5q29 31 51.5 58.5t40.5 50.5l29 33q4 4 6 8q2 2 4 6q47 55 111.5 79t130.5 7q45 -12 83 -45 t62 -76q29 -66 26 -111.5t-7 -62.5q-2 -10 -5.5 -19t-5.5 -18l-12 -39l-2 -6q41 -4 81 -22.5t69 -50.5q27 -33 40 -72t13 -76q0 -102 -84 -174l-10 -10q-43 -37 -91.5 -74t-101.5 -70q-121 -72 -238 -71q-49 0 -98 14q-37 8 -68.5 27.5t-54.5 48.5q-25 -20 -47 -37.5 t-51 -36.5h2q-47 -33 -90 -55.5t-82 -38.5q-35 -14 -73.5 -20.5t-73.5 -6.5q-23 0 -42.5 1t-29.5 3q-57 16 -102.5 52t-67.5 88q-14 29 -18.5 52t-4.5 48q0 33 7 64l-39 26t-31 31q-49 66 -49 139z" />
<glyph unicode="&#xc4;" horiz-adv-x="1089" d="M-225 389q0 49 21.5 93t58.5 79q10 10 37.5 39t50.5 57l41 45q29 31 58.5 63t57.5 60q33 29 57.5 49.5t43.5 32.5q106 66 221 41q119 -31 158 -133l-2 2q8 -18 13 -35.5t7 -36.5q29 31 51.5 58.5t40.5 50.5l29 33q4 4 6 8q2 2 4 6q47 55 111.5 79t130.5 7q45 -12 83 -45 t62 -76q29 -66 26 -111.5t-7 -62.5q-2 -10 -5.5 -19t-5.5 -18l-12 -39l-2 -6q41 -4 81 -22.5t69 -50.5q27 -33 40 -72t13 -76q0 -102 -84 -174l-10 -10q-43 -37 -91.5 -74t-101.5 -70q-121 -72 -238 -71q-49 0 -98 14q-37 8 -68.5 27.5t-54.5 48.5q-25 -20 -47 -37.5 t-51 -36.5h2q-47 -33 -90 -55.5t-82 -38.5q-35 -14 -73.5 -20.5t-73.5 -6.5q-23 0 -42.5 1t-29.5 3q-57 16 -102.5 52t-67.5 88q-14 29 -18.5 52t-4.5 48q0 33 7 64l-39 26t-31 31q-49 66 -49 139z" />
<glyph unicode="&#xc5;" horiz-adv-x="1089" d="M-225 389q0 49 21.5 93t58.5 79q10 10 37.5 39t50.5 57l41 45q29 31 58.5 63t57.5 60q33 29 57.5 49.5t43.5 32.5q106 66 221 41q119 -31 158 -133l-2 2q8 -18 13 -35.5t7 -36.5q29 31 51.5 58.5t40.5 50.5l29 33q4 4 6 8q2 2 4 6q47 55 111.5 79t130.5 7q45 -12 83 -45 t62 -76q29 -66 26 -111.5t-7 -62.5q-2 -10 -5.5 -19t-5.5 -18l-12 -39l-2 -6q41 -4 81 -22.5t69 -50.5q27 -33 40 -72t13 -76q0 -102 -84 -174l-10 -10q-43 -37 -91.5 -74t-101.5 -70q-121 -72 -238 -71q-49 0 -98 14q-37 8 -68.5 27.5t-54.5 48.5q-25 -20 -47 -37.5 t-51 -36.5h2q-47 -33 -90 -55.5t-82 -38.5q-35 -14 -73.5 -20.5t-73.5 -6.5q-23 0 -42.5 1t-29.5 3q-57 16 -102.5 52t-67.5 88q-14 29 -18.5 52t-4.5 48q0 33 7 64l-39 26t-31 31q-49 66 -49 139z" />
<glyph unicode="&#xc6;" horiz-adv-x="1089" d="M-225 389q0 49 21.5 93t58.5 79q10 10 37.5 39t50.5 57l41 45q29 31 58.5 63t57.5 60q33 29 57.5 49.5t43.5 32.5q106 66 221 41q119 -31 158 -133l-2 2q8 -18 13 -35.5t7 -36.5q29 31 51.5 58.5t40.5 50.5l29 33q4 4 6 8q2 2 4 6q47 55 111.5 79t130.5 7q45 -12 83 -45 t62 -76q29 -66 26 -111.5t-7 -62.5q-2 -10 -5.5 -19t-5.5 -18l-12 -39l-2 -6q41 -4 81 -22.5t69 -50.5q27 -33 40 -72t13 -76q0 -102 -84 -174l-10 -10q-43 -37 -91.5 -74t-101.5 -70q-121 -72 -238 -71q-49 0 -98 14q-37 8 -68.5 27.5t-54.5 48.5q-25 -20 -47 -37.5 t-51 -36.5h2q-47 -33 -90 -55.5t-82 -38.5q-35 -14 -73.5 -20.5t-73.5 -6.5q-23 0 -42.5 1t-29.5 3q-57 16 -102.5 52t-67.5 88q-14 29 -18.5 52t-4.5 48q0 33 7 64l-39 26t-31 31q-49 66 -49 139z" />
<glyph unicode="&#xc7;" horiz-adv-x="563" d="M-204 402q3 40 20.5 76t48.5 65q23 18 48.5 42.5t53.5 53.5q49 49 103.5 99t105.5 91q35 27 66.5 47.5t60.5 34.5q106 51 209 29q55 -16 97 -55t65 -94q29 -82 -2 -173q-4 -10 -8.5 -20t-10.5 -23q74 -35 107 -114q14 -41 12 -82t-18.5 -77t-46 -63.5t-70.5 -41.5 q-66 -25 -118 -44.5t-89 -31.5q-23 -8 -39 -14.5t-26 -10.5q-20 -4 -43 -10t-50 -6q-25 0 -55 6q-47 12 -84 42t-59 71q-57 -23 -120 -9.5t-108 64.5q-29 31 -41 69.5t-9 78.5z" />
<glyph unicode="&#xc8;" horiz-adv-x="563" d="M-204 402q3 40 20.5 76t48.5 65q23 18 48.5 42.5t53.5 53.5q49 49 103.5 99t105.5 91q35 27 66.5 47.5t60.5 34.5q106 51 209 29q55 -16 97 -55t65 -94q29 -82 -2 -173q-4 -10 -8.5 -20t-10.5 -23q74 -35 107 -114q14 -41 12 -82t-18.5 -77t-46 -63.5t-70.5 -41.5 q-66 -25 -118 -44.5t-89 -31.5q-23 -8 -39 -14.5t-26 -10.5q-20 -4 -43 -10t-50 -6q-25 0 -55 6q-47 12 -84 42t-59 71q-57 -23 -120 -9.5t-108 64.5q-29 31 -41 69.5t-9 78.5z" />
<glyph unicode="&#xc9;" horiz-adv-x="563" d="M-204 402q3 40 20.5 76t48.5 65q23 18 48.5 42.5t53.5 53.5q49 49 103.5 99t105.5 91q35 27 66.5 47.5t60.5 34.5q106 51 209 29q55 -16 97 -55t65 -94q29 -82 -2 -173q-4 -10 -8.5 -20t-10.5 -23q74 -35 107 -114q14 -41 12 -82t-18.5 -77t-46 -63.5t-70.5 -41.5 q-66 -25 -118 -44.5t-89 -31.5q-23 -8 -39 -14.5t-26 -10.5q-20 -4 -43 -10t-50 -6q-25 0 -55 6q-47 12 -84 42t-59 71q-57 -23 -120 -9.5t-108 64.5q-29 31 -41 69.5t-9 78.5z" />
<glyph unicode="&#xca;" horiz-adv-x="563" d="M-204 402q3 40 20.5 76t48.5 65q23 18 48.5 42.5t53.5 53.5q49 49 103.5 99t105.5 91q35 27 66.5 47.5t60.5 34.5q106 51 209 29q55 -16 97 -55t65 -94q29 -82 -2 -173q-4 -10 -8.5 -20t-10.5 -23q74 -35 107 -114q14 -41 12 -82t-18.5 -77t-46 -63.5t-70.5 -41.5 q-66 -25 -118 -44.5t-89 -31.5q-23 -8 -39 -14.5t-26 -10.5q-20 -4 -43 -10t-50 -6q-25 0 -55 6q-47 12 -84 42t-59 71q-57 -23 -120 -9.5t-108 64.5q-29 31 -41 69.5t-9 78.5z" />
<glyph unicode="&#xcb;" horiz-adv-x="563" d="M-204 402q3 40 20.5 76t48.5 65q23 18 48.5 42.5t53.5 53.5q49 49 103.5 99t105.5 91q35 27 66.5 47.5t60.5 34.5q106 51 209 29q55 -16 97 -55t65 -94q29 -82 -2 -173q-4 -10 -8.5 -20t-10.5 -23q74 -35 107 -114q14 -41 12 -82t-18.5 -77t-46 -63.5t-70.5 -41.5 q-66 -25 -118 -44.5t-89 -31.5q-23 -8 -39 -14.5t-26 -10.5q-20 -4 -43 -10t-50 -6q-25 0 -55 6q-47 12 -84 42t-59 71q-57 -23 -120 -9.5t-108 64.5q-29 31 -41 69.5t-9 78.5z" />
<glyph unicode="&#xcc;" horiz-adv-x="796" d="M-203.5 397q2.5 41 19 77t46 64.5t68.5 43.5q35 12 118 59t226 162q43 35 79 65.5t63 55.5q31 29 57 53q84 80 197 51q41 -10 73.5 -36.5t53.5 -61.5q33 -57 28.5 -116.5t-22.5 -137.5q-4 -20 -9.5 -40t-11.5 -42q66 4 121 -29t84 -94q16 -39 16.5 -79t-13 -76.5 t-41 -66.5t-66.5 -46q-68 -31 -124.5 -58.5t-98.5 -50t-66.5 -36t-26.5 -13.5q-49 -27 -98 -27q-76 0 -129 45q-49 39 -67.5 98.5t-2.5 119.5q0 2 2 6t2 6t2 6q-113 -68 -204 -102q-39 -14 -80 -12.5t-76 18t-63.5 46.5t-42.5 68q-16 39 -13.5 80z" />
<glyph unicode="&#xcd;" horiz-adv-x="796" d="M-203.5 397q2.5 41 19 77t46 64.5t68.5 43.5q35 12 118 59t226 162q43 35 79 65.5t63 55.5q31 29 57 53q84 80 197 51q41 -10 73.5 -36.5t53.5 -61.5q33 -57 28.5 -116.5t-22.5 -137.5q-4 -20 -9.5 -40t-11.5 -42q66 4 121 -29t84 -94q16 -39 16.5 -79t-13 -76.5 t-41 -66.5t-66.5 -46q-68 -31 -124.5 -58.5t-98.5 -50t-66.5 -36t-26.5 -13.5q-49 -27 -98 -27q-76 0 -129 45q-49 39 -67.5 98.5t-2.5 119.5q0 2 2 6t2 6t2 6q-113 -68 -204 -102q-39 -14 -80 -12.5t-76 18t-63.5 46.5t-42.5 68q-16 39 -13.5 80z" />
<glyph unicode="&#xce;" horiz-adv-x="796" d="M-203.5 397q2.5 41 19 77t46 64.5t68.5 43.5q35 12 118 59t226 162q43 35 79 65.5t63 55.5q31 29 57 53q84 80 197 51q41 -10 73.5 -36.5t53.5 -61.5q33 -57 28.5 -116.5t-22.5 -137.5q-4 -20 -9.5 -40t-11.5 -42q66 4 121 -29t84 -94q16 -39 16.5 -79t-13 -76.5 t-41 -66.5t-66.5 -46q-68 -31 -124.5 -58.5t-98.5 -50t-66.5 -36t-26.5 -13.5q-49 -27 -98 -27q-76 0 -129 45q-49 39 -67.5 98.5t-2.5 119.5q0 2 2 6t2 6t2 6q-113 -68 -204 -102q-39 -14 -80 -12.5t-76 18t-63.5 46.5t-42.5 68q-16 39 -13.5 80z" />
<glyph unicode="&#xcf;" horiz-adv-x="796" d="M-203.5 397q2.5 41 19 77t46 64.5t68.5 43.5q35 12 118 59t226 162q43 35 79 65.5t63 55.5q31 29 57 53q84 80 197 51q41 -10 73.5 -36.5t53.5 -61.5q33 -57 28.5 -116.5t-22.5 -137.5q-4 -20 -9.5 -40t-11.5 -42q66 4 121 -29t84 -94q16 -39 16.5 -79t-13 -76.5 t-41 -66.5t-66.5 -46q-68 -31 -124.5 -58.5t-98.5 -50t-66.5 -36t-26.5 -13.5q-49 -27 -98 -27q-76 0 -129 45q-49 39 -67.5 98.5t-2.5 119.5q0 2 2 6t2 6t2 6q-113 -68 -204 -102q-39 -14 -80 -12.5t-76 18t-63.5 46.5t-42.5 68q-16 39 -13.5 80z" />
<glyph unicode="&#xd0;" horiz-adv-x="796" d="M-203.5 397q2.5 41 19 77t46 64.5t68.5 43.5q35 12 118 59t226 162q43 35 79 65.5t63 55.5q31 29 57 53q84 80 197 51q41 -10 73.5 -36.5t53.5 -61.5q33 -57 28.5 -116.5t-22.5 -137.5q-4 -20 -9.5 -40t-11.5 -42q66 4 121 -29t84 -94q16 -39 16.5 -79t-13 -76.5 t-41 -66.5t-66.5 -46q-68 -31 -124.5 -58.5t-98.5 -50t-66.5 -36t-26.5 -13.5q-49 -27 -98 -27q-76 0 -129 45q-49 39 -67.5 98.5t-2.5 119.5q0 2 2 6t2 6t2 6q-113 -68 -204 -102q-39 -14 -80 -12.5t-76 18t-63.5 46.5t-42.5 68q-16 39 -13.5 80z" />
<glyph unicode="&#xd1;" d="M-204.5 386q-0.5 40 14 77t42 66.5t66.5 45.5q47 23 115.5 61t146.5 83q90 53 189.5 109.5t195.5 97.5q109 53 203 71q66 16 122 18.5t109 -11.5q113 -33 154 -140q31 -78 9.5 -151.5t-56.5 -139.5q6 2 13 3.5t14 5.5q39 14 78.5 11t75.5 -19.5t63.5 -46t42.5 -68.5 q14 -41 12 -81t-18.5 -76t-46 -63.5t-70.5 -41.5q-96 -35 -176 -63t-142 -48q-86 -25 -139 -36t-96 -11q-29 0 -64 10q-51 12 -88 46t-55 81q-33 78 2 176q12 35 37 82q4 8 9 17.5t11 19.5q-47 -25 -92 -52.5t-92 -51.5q-84 -51 -161 -93.5t-142 -70.5q-39 -18 -79 -18.5 t-77 14t-66.5 42t-45.5 66.5q-18 39 -18.5 79z" />
<glyph unicode="&#xd2;" d="M-204.5 386q-0.5 40 14 77t42 66.5t66.5 45.5q47 23 115.5 61t146.5 83q90 53 189.5 109.5t195.5 97.5q109 53 203 71q66 16 122 18.5t109 -11.5q113 -33 154 -140q31 -78 9.5 -151.5t-56.5 -139.5q6 2 13 3.5t14 5.5q39 14 78.5 11t75.5 -19.5t63.5 -46t42.5 -68.5 q14 -41 12 -81t-18.5 -76t-46 -63.5t-70.5 -41.5q-96 -35 -176 -63t-142 -48q-86 -25 -139 -36t-96 -11q-29 0 -64 10q-51 12 -88 46t-55 81q-33 78 2 176q12 35 37 82q4 8 9 17.5t11 19.5q-47 -25 -92 -52.5t-92 -51.5q-84 -51 -161 -93.5t-142 -70.5q-39 -18 -79 -18.5 t-77 14t-66.5 42t-45.5 66.5q-18 39 -18.5 79z" />
<glyph unicode="&#xd3;" d="M-204.5 386q-0.5 40 14 77t42 66.5t66.5 45.5q47 23 115.5 61t146.5 83q90 53 189.5 109.5t195.5 97.5q109 53 203 71q66 16 122 18.5t109 -11.5q113 -33 154 -140q31 -78 9.5 -151.5t-56.5 -139.5q6 2 13 3.5t14 5.5q39 14 78.5 11t75.5 -19.5t63.5 -46t42.5 -68.5 q14 -41 12 -81t-18.5 -76t-46 -63.5t-70.5 -41.5q-96 -35 -176 -63t-142 -48q-86 -25 -139 -36t-96 -11q-29 0 -64 10q-51 12 -88 46t-55 81q-33 78 2 176q12 35 37 82q4 8 9 17.5t11 19.5q-47 -25 -92 -52.5t-92 -51.5q-84 -51 -161 -93.5t-142 -70.5q-39 -18 -79 -18.5 t-77 14t-66.5 42t-45.5 66.5q-18 39 -18.5 79z" />
<glyph unicode="&#xd4;" d="M-204.5 386q-0.5 40 14 77t42 66.5t66.5 45.5q47 23 115.5 61t146.5 83q90 53 189.5 109.5t195.5 97.5q109 53 203 71q66 16 122 18.5t109 -11.5q113 -33 154 -140q31 -78 9.5 -151.5t-56.5 -139.5q6 2 13 3.5t14 5.5q39 14 78.5 11t75.5 -19.5t63.5 -46t42.5 -68.5 q14 -41 12 -81t-18.5 -76t-46 -63.5t-70.5 -41.5q-96 -35 -176 -63t-142 -48q-86 -25 -139 -36t-96 -11q-29 0 -64 10q-51 12 -88 46t-55 81q-33 78 2 176q12 35 37 82q4 8 9 17.5t11 19.5q-47 -25 -92 -52.5t-92 -51.5q-84 -51 -161 -93.5t-142 -70.5q-39 -18 -79 -18.5 t-77 14t-66.5 42t-45.5 66.5q-18 39 -18.5 79z" />
<glyph unicode="&#xd5;" d="M-204.5 386q-0.5 40 14 77t42 66.5t66.5 45.5q47 23 115.5 61t146.5 83q90 53 189.5 109.5t195.5 97.5q109 53 203 71q66 16 122 18.5t109 -11.5q113 -33 154 -140q31 -78 9.5 -151.5t-56.5 -139.5q6 2 13 3.5t14 5.5q39 14 78.5 11t75.5 -19.5t63.5 -46t42.5 -68.5 q14 -41 12 -81t-18.5 -76t-46 -63.5t-70.5 -41.5q-96 -35 -176 -63t-142 -48q-86 -25 -139 -36t-96 -11q-29 0 -64 10q-51 12 -88 46t-55 81q-33 78 2 176q12 35 37 82q4 8 9 17.5t11 19.5q-47 -25 -92 -52.5t-92 -51.5q-84 -51 -161 -93.5t-142 -70.5q-39 -18 -79 -18.5 t-77 14t-66.5 42t-45.5 66.5q-18 39 -18.5 79z" />
<glyph unicode="&#xd6;" horiz-adv-x="798" d="M-204 399q3 41 19.5 76t45 63.5t69.5 43.5q6 2 23.5 10t50.5 29.5t82 60.5t121 100q41 37 76.5 70t62.5 57.5t42 40t18 15.5q39 39 91 53t105 -2q88 -23 127 -103q12 -23 21.5 -63.5t-7.5 -93.5q0 -4 -2 -5t-2 -6q-2 -4 -3 -10t-3 -10q-4 -14 -11 -30.5t-15 -39.5 t-17.5 -49t-21.5 -55l8 4t8 6q35 23 75 30t77.5 -1t71.5 -30.5t57 -57.5q25 -35 32 -76t-1.5 -79t-31 -72.5t-57.5 -57.5q-49 -33 -93 -64.5t-89 -66.5q-51 -39 -95 -71.5t-89 -57.5q-33 -18 -61.5 -29.5t-57.5 -19.5q-45 -10 -82 -10t-78 10q-43 10 -77.5 37.5t-53.5 66.5 q-14 27 -19.5 51.5t-5.5 46t2.5 38t4.5 26.5t4 21.5t6 23.5q-14 -8 -26.5 -13t-26.5 -9q-35 -12 -70 -13q-63 0 -116.5 36t-76.5 99q-14 39 -11 80z" />
<glyph unicode="&#xd7;" horiz-adv-x="798" d="M-204 399q3 41 19.5 76t45 63.5t69.5 43.5q6 2 23.5 10t50.5 29.5t82 60.5t121 100q41 37 76.5 70t62.5 57.5t42 40t18 15.5q39 39 91 53t105 -2q88 -23 127 -103q12 -23 21.5 -63.5t-7.5 -93.5q0 -4 -2 -5t-2 -6q-2 -4 -3 -10t-3 -10q-4 -14 -11 -30.5t-15 -39.5 t-17.5 -49t-21.5 -55l8 4t8 6q35 23 75 30t77.5 -1t71.5 -30.5t57 -57.5q25 -35 32 -76t-1.5 -79t-31 -72.5t-57.5 -57.5q-49 -33 -93 -64.5t-89 -66.5q-51 -39 -95 -71.5t-89 -57.5q-33 -18 -61.5 -29.5t-57.5 -19.5q-45 -10 -82 -10t-78 10q-43 10 -77.5 37.5t-53.5 66.5 q-14 27 -19.5 51.5t-5.5 46t2.5 38t4.5 26.5t4 21.5t6 23.5q-14 -8 -26.5 -13t-26.5 -9q-35 -12 -70 -13q-63 0 -116.5 36t-76.5 99q-14 39 -11 80z" />
<glyph unicode="&#xd8;" horiz-adv-x="798" d="M-204 399q3 41 19.5 76t45 63.5t69.5 43.5q6 2 23.5 10t50.5 29.5t82 60.5t121 100q41 37 76.5 70t62.5 57.5t42 40t18 15.5q39 39 91 53t105 -2q88 -23 127 -103q12 -23 21.5 -63.5t-7.5 -93.5q0 -4 -2 -5t-2 -6q-2 -4 -3 -10t-3 -10q-4 -14 -11 -30.5t-15 -39.5 t-17.5 -49t-21.5 -55l8 4t8 6q35 23 75 30t77.5 -1t71.5 -30.5t57 -57.5q25 -35 32 -76t-1.5 -79t-31 -72.5t-57.5 -57.5q-49 -33 -93 -64.5t-89 -66.5q-51 -39 -95 -71.5t-89 -57.5q-33 -18 -61.5 -29.5t-57.5 -19.5q-45 -10 -82 -10t-78 10q-43 10 -77.5 37.5t-53.5 66.5 q-14 27 -19.5 51.5t-5.5 46t2.5 38t4.5 26.5t4 21.5t6 23.5q-14 -8 -26.5 -13t-26.5 -9q-35 -12 -70 -13q-63 0 -116.5 36t-76.5 99q-14 39 -11 80z" />
<glyph unicode="&#xd9;" horiz-adv-x="798" d="M-204 399q3 41 19.5 76t45 63.5t69.5 43.5q6 2 23.5 10t50.5 29.5t82 60.5t121 100q41 37 76.5 70t62.5 57.5t42 40t18 15.5q39 39 91 53t105 -2q88 -23 127 -103q12 -23 21.5 -63.5t-7.5 -93.5q0 -4 -2 -5t-2 -6q-2 -4 -3 -10t-3 -10q-4 -14 -11 -30.5t-15 -39.5 t-17.5 -49t-21.5 -55l8 4t8 6q35 23 75 30t77.5 -1t71.5 -30.5t57 -57.5q25 -35 32 -76t-1.5 -79t-31 -72.5t-57.5 -57.5q-49 -33 -93 -64.5t-89 -66.5q-51 -39 -95 -71.5t-89 -57.5q-33 -18 -61.5 -29.5t-57.5 -19.5q-45 -10 -82 -10t-78 10q-43 10 -77.5 37.5t-53.5 66.5 q-14 27 -19.5 51.5t-5.5 46t2.5 38t4.5 26.5t4 21.5t6 23.5q-14 -8 -26.5 -13t-26.5 -9q-35 -12 -70 -13q-63 0 -116.5 36t-76.5 99q-14 39 -11 80z" />
<glyph unicode="&#xda;" horiz-adv-x="798" d="M-204 399q3 41 19.5 76t45 63.5t69.5 43.5q6 2 23.5 10t50.5 29.5t82 60.5t121 100q41 37 76.5 70t62.5 57.5t42 40t18 15.5q39 39 91 53t105 -2q88 -23 127 -103q12 -23 21.5 -63.5t-7.5 -93.5q0 -4 -2 -5t-2 -6q-2 -4 -3 -10t-3 -10q-4 -14 -11 -30.5t-15 -39.5 t-17.5 -49t-21.5 -55l8 4t8 6q35 23 75 30t77.5 -1t71.5 -30.5t57 -57.5q25 -35 32 -76t-1.5 -79t-31 -72.5t-57.5 -57.5q-49 -33 -93 -64.5t-89 -66.5q-51 -39 -95 -71.5t-89 -57.5q-33 -18 -61.5 -29.5t-57.5 -19.5q-45 -10 -82 -10t-78 10q-43 10 -77.5 37.5t-53.5 66.5 q-14 27 -19.5 51.5t-5.5 46t2.5 38t4.5 26.5t4 21.5t6 23.5q-14 -8 -26.5 -13t-26.5 -9q-35 -12 -70 -13q-63 0 -116.5 36t-76.5 99q-14 39 -11 80z" />
<glyph unicode="&#xdb;" horiz-adv-x="798" d="M-204 399q3 41 19.5 76t45 63.5t69.5 43.5q6 2 23.5 10t50.5 29.5t82 60.5t121 100q41 37 76.5 70t62.5 57.5t42 40t18 15.5q39 39 91 53t105 -2q88 -23 127 -103q12 -23 21.5 -63.5t-7.5 -93.5q0 -4 -2 -5t-2 -6q-2 -4 -3 -10t-3 -10q-4 -14 -11 -30.5t-15 -39.5 t-17.5 -49t-21.5 -55l8 4t8 6q35 23 75 30t77.5 -1t71.5 -30.5t57 -57.5q25 -35 32 -76t-1.5 -79t-31 -72.5t-57.5 -57.5q-49 -33 -93 -64.5t-89 -66.5q-51 -39 -95 -71.5t-89 -57.5q-33 -18 -61.5 -29.5t-57.5 -19.5q-45 -10 -82 -10t-78 10q-43 10 -77.5 37.5t-53.5 66.5 q-14 27 -19.5 51.5t-5.5 46t2.5 38t4.5 26.5t4 21.5t6 23.5q-14 -8 -26.5 -13t-26.5 -9q-35 -12 -70 -13q-63 0 -116.5 36t-76.5 99q-14 39 -11 80z" />
<glyph unicode="&#xdc;" horiz-adv-x="796" d="M-203.5 397q2.5 41 19 77t46 64.5t68.5 43.5q35 12 118 59t226 162q43 35 79 65.5t63 55.5q31 29 57 53q84 80 197 51q41 -10 73.5 -36.5t53.5 -61.5q33 -57 28.5 -116.5t-22.5 -137.5q-4 -20 -9.5 -40t-11.5 -42q66 4 121 -29t84 -94q16 -39 16.5 -79t-13 -76.5 t-41 -66.5t-66.5 -46q-68 -31 -124.5 -58.5t-98.5 -50t-66.5 -36t-26.5 -13.5q-49 -27 -98 -27q-76 0 -129 45q-49 39 -67.5 98.5t-2.5 119.5q0 2 2 6t2 6t2 6q-113 -68 -204 -102q-39 -14 -80 -12.5t-76 18t-63.5 46.5t-42.5 68q-16 39 -13.5 80z" />
<glyph unicode="&#xdd;" horiz-adv-x="798" d="M-204 399q3 41 19.5 76t45 63.5t69.5 43.5q6 2 23.5 10t50.5 29.5t82 60.5t121 100q41 37 76.5 70t62.5 57.5t42 40t18 15.5q39 39 91 53t105 -2q88 -23 127 -103q12 -23 21.5 -63.5t-7.5 -93.5q0 -4 -2 -5t-2 -6q-2 -4 -3 -10t-3 -10q-4 -14 -11 -30.5t-15 -39.5 t-17.5 -49t-21.5 -55l8 4t8 6q35 23 75 30t77.5 -1t71.5 -30.5t57 -57.5q25 -35 32 -76t-1.5 -79t-31 -72.5t-57.5 -57.5q-49 -33 -93 -64.5t-89 -66.5q-51 -39 -95 -71.5t-89 -57.5q-33 -18 -61.5 -29.5t-57.5 -19.5q-45 -10 -82 -10t-78 10q-43 10 -77.5 37.5t-53.5 66.5 q-14 27 -19.5 51.5t-5.5 46t2.5 38t4.5 26.5t4 21.5t6 23.5q-14 -8 -26.5 -13t-26.5 -9q-35 -12 -70 -13q-63 0 -116.5 36t-76.5 99q-14 39 -11 80z" />
<glyph unicode="&#xde;" d="M-204.5 386q-0.5 40 14 77t42 66.5t66.5 45.5q47 23 115.5 61t146.5 83q90 53 189.5 109.5t195.5 97.5q109 53 203 71q66 16 122 18.5t109 -11.5q113 -33 154 -140q31 -78 9.5 -151.5t-56.5 -139.5q6 2 13 3.5t14 5.5q39 14 78.5 11t75.5 -19.5t63.5 -46t42.5 -68.5 q14 -41 12 -81t-18.5 -76t-46 -63.5t-70.5 -41.5q-96 -35 -176 -63t-142 -48q-86 -25 -139 -36t-96 -11q-29 0 -64 10q-51 12 -88 46t-55 81q-33 78 2 176q12 35 37 82q4 8 9 17.5t11 19.5q-47 -25 -92 -52.5t-92 -51.5q-84 -51 -161 -93.5t-142 -70.5q-39 -18 -79 -18.5 t-77 14t-66.5 42t-45.5 66.5q-18 39 -18.5 79z" />
<glyph unicode="&#xdf;" horiz-adv-x="1089" d="M-225 389q0 49 21.5 93t58.5 79q10 10 37.5 39t50.5 57l41 45q29 31 58.5 63t57.5 60q33 29 57.5 49.5t43.5 32.5q106 66 221 41q119 -31 158 -133l-2 2q8 -18 13 -35.5t7 -36.5q29 31 51.5 58.5t40.5 50.5l29 33q4 4 6 8q2 2 4 6q47 55 111.5 79t130.5 7q45 -12 83 -45 t62 -76q29 -66 26 -111.5t-7 -62.5q-2 -10 -5.5 -19t-5.5 -18l-12 -39l-2 -6q41 -4 81 -22.5t69 -50.5q27 -33 40 -72t13 -76q0 -102 -84 -174l-10 -10q-43 -37 -91.5 -74t-101.5 -70q-121 -72 -238 -71q-49 0 -98 14q-37 8 -68.5 27.5t-54.5 48.5q-25 -20 -47 -37.5 t-51 -36.5h2q-47 -33 -90 -55.5t-82 -38.5q-35 -14 -73.5 -20.5t-73.5 -6.5q-23 0 -42.5 1t-29.5 3q-57 16 -102.5 52t-67.5 88q-14 29 -18.5 52t-4.5 48q0 33 7 64l-39 26t-31 31q-49 66 -49 139z" />
<glyph unicode="&#xe0;" horiz-adv-x="1089" d="M-225 389q0 49 21.5 93t58.5 79q10 10 37.5 39t50.5 57l41 45q29 31 58.5 63t57.5 60q33 29 57.5 49.5t43.5 32.5q106 66 221 41q119 -31 158 -133l-2 2q8 -18 13 -35.5t7 -36.5q29 31 51.5 58.5t40.5 50.5l29 33q4 4 6 8q2 2 4 6q47 55 111.5 79t130.5 7q45 -12 83 -45 t62 -76q29 -66 26 -111.5t-7 -62.5q-2 -10 -5.5 -19t-5.5 -18l-12 -39l-2 -6q41 -4 81 -22.5t69 -50.5q27 -33 40 -72t13 -76q0 -102 -84 -174l-10 -10q-43 -37 -91.5 -74t-101.5 -70q-121 -72 -238 -71q-49 0 -98 14q-37 8 -68.5 27.5t-54.5 48.5q-25 -20 -47 -37.5 t-51 -36.5h2q-47 -33 -90 -55.5t-82 -38.5q-35 -14 -73.5 -20.5t-73.5 -6.5q-23 0 -42.5 1t-29.5 3q-57 16 -102.5 52t-67.5 88q-14 29 -18.5 52t-4.5 48q0 33 7 64l-39 26t-31 31q-49 66 -49 139z" />
<glyph unicode="&#xe1;" d="M-204.5 386q-0.5 40 14 77t42 66.5t66.5 45.5q47 23 115.5 61t146.5 83q90 53 189.5 109.5t195.5 97.5q109 53 203 71q66 16 122 18.5t109 -11.5q113 -33 154 -140q31 -78 9.5 -151.5t-56.5 -139.5q6 2 13 3.5t14 5.5q39 14 78.5 11t75.5 -19.5t63.5 -46t42.5 -68.5 q14 -41 12 -81t-18.5 -76t-46 -63.5t-70.5 -41.5q-96 -35 -176 -63t-142 -48q-86 -25 -139 -36t-96 -11q-29 0 -64 10q-51 12 -88 46t-55 81q-33 78 2 176q12 35 37 82q4 8 9 17.5t11 19.5q-47 -25 -92 -52.5t-92 -51.5q-84 -51 -161 -93.5t-142 -70.5q-39 -18 -79 -18.5 t-77 14t-66.5 42t-45.5 66.5q-18 39 -18.5 79z" />
<glyph unicode="&#xe2;" horiz-adv-x="1089" d="M-225 389q0 49 21.5 93t58.5 79q10 10 37.5 39t50.5 57l41 45q29 31 58.5 63t57.5 60q33 29 57.5 49.5t43.5 32.5q106 66 221 41q119 -31 158 -133l-2 2q8 -18 13 -35.5t7 -36.5q29 31 51.5 58.5t40.5 50.5l29 33q4 4 6 8q2 2 4 6q47 55 111.5 79t130.5 7q45 -12 83 -45 t62 -76q29 -66 26 -111.5t-7 -62.5q-2 -10 -5.5 -19t-5.5 -18l-12 -39l-2 -6q41 -4 81 -22.5t69 -50.5q27 -33 40 -72t13 -76q0 -102 -84 -174l-10 -10q-43 -37 -91.5 -74t-101.5 -70q-121 -72 -238 -71q-49 0 -98 14q-37 8 -68.5 27.5t-54.5 48.5q-25 -20 -47 -37.5 t-51 -36.5h2q-47 -33 -90 -55.5t-82 -38.5q-35 -14 -73.5 -20.5t-73.5 -6.5q-23 0 -42.5 1t-29.5 3q-57 16 -102.5 52t-67.5 88q-14 29 -18.5 52t-4.5 48q0 33 7 64l-39 26t-31 31q-49 66 -49 139z" />
<glyph unicode="&#xe3;" horiz-adv-x="1089" d="M-225 389q0 49 21.5 93t58.5 79q10 10 37.5 39t50.5 57l41 45q29 31 58.5 63t57.5 60q33 29 57.5 49.5t43.5 32.5q106 66 221 41q119 -31 158 -133l-2 2q8 -18 13 -35.5t7 -36.5q29 31 51.5 58.5t40.5 50.5l29 33q4 4 6 8q2 2 4 6q47 55 111.5 79t130.5 7q45 -12 83 -45 t62 -76q29 -66 26 -111.5t-7 -62.5q-2 -10 -5.5 -19t-5.5 -18l-12 -39l-2 -6q41 -4 81 -22.5t69 -50.5q27 -33 40 -72t13 -76q0 -102 -84 -174l-10 -10q-43 -37 -91.5 -74t-101.5 -70q-121 -72 -238 -71q-49 0 -98 14q-37 8 -68.5 27.5t-54.5 48.5q-25 -20 -47 -37.5 t-51 -36.5h2q-47 -33 -90 -55.5t-82 -38.5q-35 -14 -73.5 -20.5t-73.5 -6.5q-23 0 -42.5 1t-29.5 3q-57 16 -102.5 52t-67.5 88q-14 29 -18.5 52t-4.5 48q0 33 7 64l-39 26t-31 31q-49 66 -49 139z" />
<glyph unicode="&#xe4;" horiz-adv-x="1089" d="M-225 389q0 49 21.5 93t58.5 79q10 10 37.5 39t50.5 57l41 45q29 31 58.5 63t57.5 60q33 29 57.5 49.5t43.5 32.5q106 66 221 41q119 -31 158 -133l-2 2q8 -18 13 -35.5t7 -36.5q29 31 51.5 58.5t40.5 50.5l29 33q4 4 6 8q2 2 4 6q47 55 111.5 79t130.5 7q45 -12 83 -45 t62 -76q29 -66 26 -111.5t-7 -62.5q-2 -10 -5.5 -19t-5.5 -18l-12 -39l-2 -6q41 -4 81 -22.5t69 -50.5q27 -33 40 -72t13 -76q0 -102 -84 -174l-10 -10q-43 -37 -91.5 -74t-101.5 -70q-121 -72 -238 -71q-49 0 -98 14q-37 8 -68.5 27.5t-54.5 48.5q-25 -20 -47 -37.5 t-51 -36.5h2q-47 -33 -90 -55.5t-82 -38.5q-35 -14 -73.5 -20.5t-73.5 -6.5q-23 0 -42.5 1t-29.5 3q-57 16 -102.5 52t-67.5 88q-14 29 -18.5 52t-4.5 48q0 33 7 64l-39 26t-31 31q-49 66 -49 139z" />
<glyph unicode="&#xe5;" horiz-adv-x="1089" d="M-225 389q0 49 21.5 93t58.5 79q10 10 37.5 39t50.5 57l41 45q29 31 58.5 63t57.5 60q33 29 57.5 49.5t43.5 32.5q106 66 221 41q119 -31 158 -133l-2 2q8 -18 13 -35.5t7 -36.5q29 31 51.5 58.5t40.5 50.5l29 33q4 4 6 8q2 2 4 6q47 55 111.5 79t130.5 7q45 -12 83 -45 t62 -76q29 -66 26 -111.5t-7 -62.5q-2 -10 -5.5 -19t-5.5 -18l-12 -39l-2 -6q41 -4 81 -22.5t69 -50.5q27 -33 40 -72t13 -76q0 -102 -84 -174l-10 -10q-43 -37 -91.5 -74t-101.5 -70q-121 -72 -238 -71q-49 0 -98 14q-37 8 -68.5 27.5t-54.5 48.5q-25 -20 -47 -37.5 t-51 -36.5h2q-47 -33 -90 -55.5t-82 -38.5q-35 -14 -73.5 -20.5t-73.5 -6.5q-23 0 -42.5 1t-29.5 3q-57 16 -102.5 52t-67.5 88q-14 29 -18.5 52t-4.5 48q0 33 7 64l-39 26t-31 31q-49 66 -49 139z" />
<glyph unicode="&#xe6;" horiz-adv-x="1089" d="M-225 389q0 49 21.5 93t58.5 79q10 10 37.5 39t50.5 57l41 45q29 31 58.5 63t57.5 60q33 29 57.5 49.5t43.5 32.5q106 66 221 41q119 -31 158 -133l-2 2q8 -18 13 -35.5t7 -36.5q29 31 51.5 58.5t40.5 50.5l29 33q4 4 6 8q2 2 4 6q47 55 111.5 79t130.5 7q45 -12 83 -45 t62 -76q29 -66 26 -111.5t-7 -62.5q-2 -10 -5.5 -19t-5.5 -18l-12 -39l-2 -6q41 -4 81 -22.5t69 -50.5q27 -33 40 -72t13 -76q0 -102 -84 -174l-10 -10q-43 -37 -91.5 -74t-101.5 -70q-121 -72 -238 -71q-49 0 -98 14q-37 8 -68.5 27.5t-54.5 48.5q-25 -20 -47 -37.5 t-51 -36.5h2q-47 -33 -90 -55.5t-82 -38.5q-35 -14 -73.5 -20.5t-73.5 -6.5q-23 0 -42.5 1t-29.5 3q-57 16 -102.5 52t-67.5 88q-14 29 -18.5 52t-4.5 48q0 33 7 64l-39 26t-31 31q-49 66 -49 139z" />
<glyph unicode="&#xe7;" horiz-adv-x="563" d="M-204 402q3 40 20.5 76t48.5 65q23 18 48.5 42.5t53.5 53.5q49 49 103.5 99t105.5 91q35 27 66.5 47.5t60.5 34.5q106 51 209 29q55 -16 97 -55t65 -94q29 -82 -2 -173q-4 -10 -8.5 -20t-10.5 -23q74 -35 107 -114q14 -41 12 -82t-18.5 -77t-46 -63.5t-70.5 -41.5 q-66 -25 -118 -44.5t-89 -31.5q-23 -8 -39 -14.5t-26 -10.5q-20 -4 -43 -10t-50 -6q-25 0 -55 6q-47 12 -84 42t-59 71q-57 -23 -120 -9.5t-108 64.5q-29 31 -41 69.5t-9 78.5z" />
<glyph unicode="&#xe8;" horiz-adv-x="563" d="M-204 402q3 40 20.5 76t48.5 65q23 18 48.5 42.5t53.5 53.5q49 49 103.5 99t105.5 91q35 27 66.5 47.5t60.5 34.5q106 51 209 29q55 -16 97 -55t65 -94q29 -82 -2 -173q-4 -10 -8.5 -20t-10.5 -23q74 -35 107 -114q14 -41 12 -82t-18.5 -77t-46 -63.5t-70.5 -41.5 q-66 -25 -118 -44.5t-89 -31.5q-23 -8 -39 -14.5t-26 -10.5q-20 -4 -43 -10t-50 -6q-25 0 -55 6q-47 12 -84 42t-59 71q-57 -23 -120 -9.5t-108 64.5q-29 31 -41 69.5t-9 78.5z" />
<glyph unicode="&#xe9;" horiz-adv-x="563" d="M-204 402q3 40 20.5 76t48.5 65q23 18 48.5 42.5t53.5 53.5q49 49 103.5 99t105.5 91q35 27 66.5 47.5t60.5 34.5q106 51 209 29q55 -16 97 -55t65 -94q29 -82 -2 -173q-4 -10 -8.5 -20t-10.5 -23q74 -35 107 -114q14 -41 12 -82t-18.5 -77t-46 -63.5t-70.5 -41.5 q-66 -25 -118 -44.5t-89 -31.5q-23 -8 -39 -14.5t-26 -10.5q-20 -4 -43 -10t-50 -6q-25 0 -55 6q-47 12 -84 42t-59 71q-57 -23 -120 -9.5t-108 64.5q-29 31 -41 69.5t-9 78.5z" />
<glyph unicode="&#xea;" horiz-adv-x="563" d="M-204 402q3 40 20.5 76t48.5 65q23 18 48.5 42.5t53.5 53.5q49 49 103.5 99t105.5 91q35 27 66.5 47.5t60.5 34.5q106 51 209 29q55 -16 97 -55t65 -94q29 -82 -2 -173q-4 -10 -8.5 -20t-10.5 -23q74 -35 107 -114q14 -41 12 -82t-18.5 -77t-46 -63.5t-70.5 -41.5 q-66 -25 -118 -44.5t-89 -31.5q-23 -8 -39 -14.5t-26 -10.5q-20 -4 -43 -10t-50 -6q-25 0 -55 6q-47 12 -84 42t-59 71q-57 -23 -120 -9.5t-108 64.5q-29 31 -41 69.5t-9 78.5z" />
<glyph unicode="&#xeb;" horiz-adv-x="563" d="M-204 402q3 40 20.5 76t48.5 65q23 18 48.5 42.5t53.5 53.5q49 49 103.5 99t105.5 91q35 27 66.5 47.5t60.5 34.5q106 51 209 29q55 -16 97 -55t65 -94q29 -82 -2 -173q-4 -10 -8.5 -20t-10.5 -23q74 -35 107 -114q14 -41 12 -82t-18.5 -77t-46 -63.5t-70.5 -41.5 q-66 -25 -118 -44.5t-89 -31.5q-23 -8 -39 -14.5t-26 -10.5q-20 -4 -43 -10t-50 -6q-25 0 -55 6q-47 12 -84 42t-59 71q-57 -23 -120 -9.5t-108 64.5q-29 31 -41 69.5t-9 78.5z" />
<glyph unicode="&#xec;" horiz-adv-x="796" d="M-203.5 397q2.5 41 19 77t46 64.5t68.5 43.5q35 12 118 59t226 162q43 35 79 65.5t63 55.5q31 29 57 53q84 80 197 51q41 -10 73.5 -36.5t53.5 -61.5q33 -57 28.5 -116.5t-22.5 -137.5q-4 -20 -9.5 -40t-11.5 -42q66 4 121 -29t84 -94q16 -39 16.5 -79t-13 -76.5 t-41 -66.5t-66.5 -46q-68 -31 -124.5 -58.5t-98.5 -50t-66.5 -36t-26.5 -13.5q-49 -27 -98 -27q-76 0 -129 45q-49 39 -67.5 98.5t-2.5 119.5q0 2 2 6t2 6t2 6q-113 -68 -204 -102q-39 -14 -80 -12.5t-76 18t-63.5 46.5t-42.5 68q-16 39 -13.5 80z" />
<glyph unicode="&#xed;" horiz-adv-x="796" d="M-203.5 397q2.5 41 19 77t46 64.5t68.5 43.5q35 12 118 59t226 162q43 35 79 65.5t63 55.5q31 29 57 53q84 80 197 51q41 -10 73.5 -36.5t53.5 -61.5q33 -57 28.5 -116.5t-22.5 -137.5q-4 -20 -9.5 -40t-11.5 -42q66 4 121 -29t84 -94q16 -39 16.5 -79t-13 -76.5 t-41 -66.5t-66.5 -46q-68 -31 -124.5 -58.5t-98.5 -50t-66.5 -36t-26.5 -13.5q-49 -27 -98 -27q-76 0 -129 45q-49 39 -67.5 98.5t-2.5 119.5q0 2 2 6t2 6t2 6q-113 -68 -204 -102q-39 -14 -80 -12.5t-76 18t-63.5 46.5t-42.5 68q-16 39 -13.5 80z" />
<glyph unicode="&#xee;" horiz-adv-x="796" d="M-203.5 397q2.5 41 19 77t46 64.5t68.5 43.5q35 12 118 59t226 162q43 35 79 65.5t63 55.5q31 29 57 53q84 80 197 51q41 -10 73.5 -36.5t53.5 -61.5q33 -57 28.5 -116.5t-22.5 -137.5q-4 -20 -9.5 -40t-11.5 -42q66 4 121 -29t84 -94q16 -39 16.5 -79t-13 -76.5 t-41 -66.5t-66.5 -46q-68 -31 -124.5 -58.5t-98.5 -50t-66.5 -36t-26.5 -13.5q-49 -27 -98 -27q-76 0 -129 45q-49 39 -67.5 98.5t-2.5 119.5q0 2 2 6t2 6t2 6q-113 -68 -204 -102q-39 -14 -80 -12.5t-76 18t-63.5 46.5t-42.5 68q-16 39 -13.5 80z" />
<glyph unicode="&#xef;" horiz-adv-x="796" d="M-203.5 397q2.5 41 19 77t46 64.5t68.5 43.5q35 12 118 59t226 162q43 35 79 65.5t63 55.5q31 29 57 53q84 80 197 51q41 -10 73.5 -36.5t53.5 -61.5q33 -57 28.5 -116.5t-22.5 -137.5q-4 -20 -9.5 -40t-11.5 -42q66 4 121 -29t84 -94q16 -39 16.5 -79t-13 -76.5 t-41 -66.5t-66.5 -46q-68 -31 -124.5 -58.5t-98.5 -50t-66.5 -36t-26.5 -13.5q-49 -27 -98 -27q-76 0 -129 45q-49 39 -67.5 98.5t-2.5 119.5q0 2 2 6t2 6t2 6q-113 -68 -204 -102q-39 -14 -80 -12.5t-76 18t-63.5 46.5t-42.5 68q-16 39 -13.5 80z" />
<glyph unicode="&#xf0;" horiz-adv-x="796" d="M-203.5 397q2.5 41 19 77t46 64.5t68.5 43.5q35 12 118 59t226 162q43 35 79 65.5t63 55.5q31 29 57 53q84 80 197 51q41 -10 73.5 -36.5t53.5 -61.5q33 -57 28.5 -116.5t-22.5 -137.5q-4 -20 -9.5 -40t-11.5 -42q66 4 121 -29t84 -94q16 -39 16.5 -79t-13 -76.5 t-41 -66.5t-66.5 -46q-68 -31 -124.5 -58.5t-98.5 -50t-66.5 -36t-26.5 -13.5q-49 -27 -98 -27q-76 0 -129 45q-49 39 -67.5 98.5t-2.5 119.5q0 2 2 6t2 6t2 6q-113 -68 -204 -102q-39 -14 -80 -12.5t-76 18t-63.5 46.5t-42.5 68q-16 39 -13.5 80z" />
<glyph unicode="&#xf1;" d="M-204.5 386q-0.5 40 14 77t42 66.5t66.5 45.5q47 23 115.5 61t146.5 83q90 53 189.5 109.5t195.5 97.5q109 53 203 71q66 16 122 18.5t109 -11.5q113 -33 154 -140q31 -78 9.5 -151.5t-56.5 -139.5q6 2 13 3.5t14 5.5q39 14 78.5 11t75.5 -19.5t63.5 -46t42.5 -68.5 q14 -41 12 -81t-18.5 -76t-46 -63.5t-70.5 -41.5q-96 -35 -176 -63t-142 -48q-86 -25 -139 -36t-96 -11q-29 0 -64 10q-51 12 -88 46t-55 81q-33 78 2 176q12 35 37 82q4 8 9 17.5t11 19.5q-47 -25 -92 -52.5t-92 -51.5q-84 -51 -161 -93.5t-142 -70.5q-39 -18 -79 -18.5 t-77 14t-66.5 42t-45.5 66.5q-18 39 -18.5 79z" />
<glyph unicode="&#xf2;" d="M-204.5 386q-0.5 40 14 77t42 66.5t66.5 45.5q47 23 115.5 61t146.5 83q90 53 189.5 109.5t195.5 97.5q109 53 203 71q66 16 122 18.5t109 -11.5q113 -33 154 -140q31 -78 9.5 -151.5t-56.5 -139.5q6 2 13 3.5t14 5.5q39 14 78.5 11t75.5 -19.5t63.5 -46t42.5 -68.5 q14 -41 12 -81t-18.5 -76t-46 -63.5t-70.5 -41.5q-96 -35 -176 -63t-142 -48q-86 -25 -139 -36t-96 -11q-29 0 -64 10q-51 12 -88 46t-55 81q-33 78 2 176q12 35 37 82q4 8 9 17.5t11 19.5q-47 -25 -92 -52.5t-92 -51.5q-84 -51 -161 -93.5t-142 -70.5q-39 -18 -79 -18.5 t-77 14t-66.5 42t-45.5 66.5q-18 39 -18.5 79z" />
<glyph unicode="&#xf3;" d="M-204.5 386q-0.5 40 14 77t42 66.5t66.5 45.5q47 23 115.5 61t146.5 83q90 53 189.5 109.5t195.5 97.5q109 53 203 71q66 16 122 18.5t109 -11.5q113 -33 154 -140q31 -78 9.5 -151.5t-56.5 -139.5q6 2 13 3.5t14 5.5q39 14 78.5 11t75.5 -19.5t63.5 -46t42.5 -68.5 q14 -41 12 -81t-18.5 -76t-46 -63.5t-70.5 -41.5q-96 -35 -176 -63t-142 -48q-86 -25 -139 -36t-96 -11q-29 0 -64 10q-51 12 -88 46t-55 81q-33 78 2 176q12 35 37 82q4 8 9 17.5t11 19.5q-47 -25 -92 -52.5t-92 -51.5q-84 -51 -161 -93.5t-142 -70.5q-39 -18 -79 -18.5 t-77 14t-66.5 42t-45.5 66.5q-18 39 -18.5 79z" />
<glyph unicode="&#xf4;" d="M-204.5 386q-0.5 40 14 77t42 66.5t66.5 45.5q47 23 115.5 61t146.5 83q90 53 189.5 109.5t195.5 97.5q109 53 203 71q66 16 122 18.5t109 -11.5q113 -33 154 -140q31 -78 9.5 -151.5t-56.5 -139.5q6 2 13 3.5t14 5.5q39 14 78.5 11t75.5 -19.5t63.5 -46t42.5 -68.5 q14 -41 12 -81t-18.5 -76t-46 -63.5t-70.5 -41.5q-96 -35 -176 -63t-142 -48q-86 -25 -139 -36t-96 -11q-29 0 -64 10q-51 12 -88 46t-55 81q-33 78 2 176q12 35 37 82q4 8 9 17.5t11 19.5q-47 -25 -92 -52.5t-92 -51.5q-84 -51 -161 -93.5t-142 -70.5q-39 -18 -79 -18.5 t-77 14t-66.5 42t-45.5 66.5q-18 39 -18.5 79z" />
<glyph unicode="&#xf5;" d="M-204.5 386q-0.5 40 14 77t42 66.5t66.5 45.5q47 23 115.5 61t146.5 83q90 53 189.5 109.5t195.5 97.5q109 53 203 71q66 16 122 18.5t109 -11.5q113 -33 154 -140q31 -78 9.5 -151.5t-56.5 -139.5q6 2 13 3.5t14 5.5q39 14 78.5 11t75.5 -19.5t63.5 -46t42.5 -68.5 q14 -41 12 -81t-18.5 -76t-46 -63.5t-70.5 -41.5q-96 -35 -176 -63t-142 -48q-86 -25 -139 -36t-96 -11q-29 0 -64 10q-51 12 -88 46t-55 81q-33 78 2 176q12 35 37 82q4 8 9 17.5t11 19.5q-47 -25 -92 -52.5t-92 -51.5q-84 -51 -161 -93.5t-142 -70.5q-39 -18 -79 -18.5 t-77 14t-66.5 42t-45.5 66.5q-18 39 -18.5 79z" />
<glyph unicode="&#xf6;" horiz-adv-x="798" d="M-204 399q3 41 19.5 76t45 63.5t69.5 43.5q6 2 23.5 10t50.5 29.5t82 60.5t121 100q41 37 76.5 70t62.5 57.5t42 40t18 15.5q39 39 91 53t105 -2q88 -23 127 -103q12 -23 21.5 -63.5t-7.5 -93.5q0 -4 -2 -5t-2 -6q-2 -4 -3 -10t-3 -10q-4 -14 -11 -30.5t-15 -39.5 t-17.5 -49t-21.5 -55l8 4t8 6q35 23 75 30t77.5 -1t71.5 -30.5t57 -57.5q25 -35 32 -76t-1.5 -79t-31 -72.5t-57.5 -57.5q-49 -33 -93 -64.5t-89 -66.5q-51 -39 -95 -71.5t-89 -57.5q-33 -18 -61.5 -29.5t-57.5 -19.5q-45 -10 -82 -10t-78 10q-43 10 -77.5 37.5t-53.5 66.5 q-14 27 -19.5 51.5t-5.5 46t2.5 38t4.5 26.5t4 21.5t6 23.5q-14 -8 -26.5 -13t-26.5 -9q-35 -12 -70 -13q-63 0 -116.5 36t-76.5 99q-14 39 -11 80z" />
<glyph unicode="&#xf7;" horiz-adv-x="798" d="M-204 399q3 41 19.5 76t45 63.5t69.5 43.5q6 2 23.5 10t50.5 29.5t82 60.5t121 100q41 37 76.5 70t62.5 57.5t42 40t18 15.5q39 39 91 53t105 -2q88 -23 127 -103q12 -23 21.5 -63.5t-7.5 -93.5q0 -4 -2 -5t-2 -6q-2 -4 -3 -10t-3 -10q-4 -14 -11 -30.5t-15 -39.5 t-17.5 -49t-21.5 -55l8 4t8 6q35 23 75 30t77.5 -1t71.5 -30.5t57 -57.5q25 -35 32 -76t-1.5 -79t-31 -72.5t-57.5 -57.5q-49 -33 -93 -64.5t-89 -66.5q-51 -39 -95 -71.5t-89 -57.5q-33 -18 -61.5 -29.5t-57.5 -19.5q-45 -10 -82 -10t-78 10q-43 10 -77.5 37.5t-53.5 66.5 q-14 27 -19.5 51.5t-5.5 46t2.5 38t4.5 26.5t4 21.5t6 23.5q-14 -8 -26.5 -13t-26.5 -9q-35 -12 -70 -13q-63 0 -116.5 36t-76.5 99q-14 39 -11 80z" />
<glyph unicode="&#xf8;" horiz-adv-x="798" d="M-204 399q3 41 19.5 76t45 63.5t69.5 43.5q6 2 23.5 10t50.5 29.5t82 60.5t121 100q41 37 76.5 70t62.5 57.5t42 40t18 15.5q39 39 91 53t105 -2q88 -23 127 -103q12 -23 21.5 -63.5t-7.5 -93.5q0 -4 -2 -5t-2 -6q-2 -4 -3 -10t-3 -10q-4 -14 -11 -30.5t-15 -39.5 t-17.5 -49t-21.5 -55l8 4t8 6q35 23 75 30t77.5 -1t71.5 -30.5t57 -57.5q25 -35 32 -76t-1.5 -79t-31 -72.5t-57.5 -57.5q-49 -33 -93 -64.5t-89 -66.5q-51 -39 -95 -71.5t-89 -57.5q-33 -18 -61.5 -29.5t-57.5 -19.5q-45 -10 -82 -10t-78 10q-43 10 -77.5 37.5t-53.5 66.5 q-14 27 -19.5 51.5t-5.5 46t2.5 38t4.5 26.5t4 21.5t6 23.5q-14 -8 -26.5 -13t-26.5 -9q-35 -12 -70 -13q-63 0 -116.5 36t-76.5 99q-14 39 -11 80z" />
<glyph unicode="&#xf9;" horiz-adv-x="798" d="M-204 399q3 41 19.5 76t45 63.5t69.5 43.5q6 2 23.5 10t50.5 29.5t82 60.5t121 100q41 37 76.5 70t62.5 57.5t42 40t18 15.5q39 39 91 53t105 -2q88 -23 127 -103q12 -23 21.5 -63.5t-7.5 -93.5q0 -4 -2 -5t-2 -6q-2 -4 -3 -10t-3 -10q-4 -14 -11 -30.5t-15 -39.5 t-17.5 -49t-21.5 -55l8 4t8 6q35 23 75 30t77.5 -1t71.5 -30.5t57 -57.5q25 -35 32 -76t-1.5 -79t-31 -72.5t-57.5 -57.5q-49 -33 -93 -64.5t-89 -66.5q-51 -39 -95 -71.5t-89 -57.5q-33 -18 -61.5 -29.5t-57.5 -19.5q-45 -10 -82 -10t-78 10q-43 10 -77.5 37.5t-53.5 66.5 q-14 27 -19.5 51.5t-5.5 46t2.5 38t4.5 26.5t4 21.5t6 23.5q-14 -8 -26.5 -13t-26.5 -9q-35 -12 -70 -13q-63 0 -116.5 36t-76.5 99q-14 39 -11 80z" />
<glyph unicode="&#xfa;" horiz-adv-x="798" d="M-204 399q3 41 19.5 76t45 63.5t69.5 43.5q6 2 23.5 10t50.5 29.5t82 60.5t121 100q41 37 76.5 70t62.5 57.5t42 40t18 15.5q39 39 91 53t105 -2q88 -23 127 -103q12 -23 21.5 -63.5t-7.5 -93.5q0 -4 -2 -5t-2 -6q-2 -4 -3 -10t-3 -10q-4 -14 -11 -30.5t-15 -39.5 t-17.5 -49t-21.5 -55l8 4t8 6q35 23 75 30t77.5 -1t71.5 -30.5t57 -57.5q25 -35 32 -76t-1.5 -79t-31 -72.5t-57.5 -57.5q-49 -33 -93 -64.5t-89 -66.5q-51 -39 -95 -71.5t-89 -57.5q-33 -18 -61.5 -29.5t-57.5 -19.5q-45 -10 -82 -10t-78 10q-43 10 -77.5 37.5t-53.5 66.5 q-14 27 -19.5 51.5t-5.5 46t2.5 38t4.5 26.5t4 21.5t6 23.5q-14 -8 -26.5 -13t-26.5 -9q-35 -12 -70 -13q-63 0 -116.5 36t-76.5 99q-14 39 -11 80z" />
<glyph unicode="&#xfb;" horiz-adv-x="798" d="M-204 399q3 41 19.5 76t45 63.5t69.5 43.5q6 2 23.5 10t50.5 29.5t82 60.5t121 100q41 37 76.5 70t62.5 57.5t42 40t18 15.5q39 39 91 53t105 -2q88 -23 127 -103q12 -23 21.5 -63.5t-7.5 -93.5q0 -4 -2 -5t-2 -6q-2 -4 -3 -10t-3 -10q-4 -14 -11 -30.5t-15 -39.5 t-17.5 -49t-21.5 -55l8 4t8 6q35 23 75 30t77.5 -1t71.5 -30.5t57 -57.5q25 -35 32 -76t-1.5 -79t-31 -72.5t-57.5 -57.5q-49 -33 -93 -64.5t-89 -66.5q-51 -39 -95 -71.5t-89 -57.5q-33 -18 -61.5 -29.5t-57.5 -19.5q-45 -10 -82 -10t-78 10q-43 10 -77.5 37.5t-53.5 66.5 q-14 27 -19.5 51.5t-5.5 46t2.5 38t4.5 26.5t4 21.5t6 23.5q-14 -8 -26.5 -13t-26.5 -9q-35 -12 -70 -13q-63 0 -116.5 36t-76.5 99q-14 39 -11 80z" />
<glyph unicode="&#xfc;" horiz-adv-x="796" d="M-203.5 397q2.5 41 19 77t46 64.5t68.5 43.5q35 12 118 59t226 162q43 35 79 65.5t63 55.5q31 29 57 53q84 80 197 51q41 -10 73.5 -36.5t53.5 -61.5q33 -57 28.5 -116.5t-22.5 -137.5q-4 -20 -9.5 -40t-11.5 -42q66 4 121 -29t84 -94q16 -39 16.5 -79t-13 -76.5 t-41 -66.5t-66.5 -46q-68 -31 -124.5 -58.5t-98.5 -50t-66.5 -36t-26.5 -13.5q-49 -27 -98 -27q-76 0 -129 45q-49 39 -67.5 98.5t-2.5 119.5q0 2 2 6t2 6t2 6q-113 -68 -204 -102q-39 -14 -80 -12.5t-76 18t-63.5 46.5t-42.5 68q-16 39 -13.5 80z" />
<glyph unicode="&#xfd;" horiz-adv-x="798" d="M-204 399q3 41 19.5 76t45 63.5t69.5 43.5q6 2 23.5 10t50.5 29.5t82 60.5t121 100q41 37 76.5 70t62.5 57.5t42 40t18 15.5q39 39 91 53t105 -2q88 -23 127 -103q12 -23 21.5 -63.5t-7.5 -93.5q0 -4 -2 -5t-2 -6q-2 -4 -3 -10t-3 -10q-4 -14 -11 -30.5t-15 -39.5 t-17.5 -49t-21.5 -55l8 4t8 6q35 23 75 30t77.5 -1t71.5 -30.5t57 -57.5q25 -35 32 -76t-1.5 -79t-31 -72.5t-57.5 -57.5q-49 -33 -93 -64.5t-89 -66.5q-51 -39 -95 -71.5t-89 -57.5q-33 -18 -61.5 -29.5t-57.5 -19.5q-45 -10 -82 -10t-78 10q-43 10 -77.5 37.5t-53.5 66.5 q-14 27 -19.5 51.5t-5.5 46t2.5 38t4.5 26.5t4 21.5t6 23.5q-14 -8 -26.5 -13t-26.5 -9q-35 -12 -70 -13q-63 0 -116.5 36t-76.5 99q-14 39 -11 80z" />
<glyph unicode="&#xfe;" d="M-204.5 386q-0.5 40 14 77t42 66.5t66.5 45.5q47 23 115.5 61t146.5 83q90 53 189.5 109.5t195.5 97.5q109 53 203 71q66 16 122 18.5t109 -11.5q113 -33 154 -140q31 -78 9.5 -151.5t-56.5 -139.5q6 2 13 3.5t14 5.5q39 14 78.5 11t75.5 -19.5t63.5 -46t42.5 -68.5 q14 -41 12 -81t-18.5 -76t-46 -63.5t-70.5 -41.5q-96 -35 -176 -63t-142 -48q-86 -25 -139 -36t-96 -11q-29 0 -64 10q-51 12 -88 46t-55 81q-33 78 2 176q12 35 37 82q4 8 9 17.5t11 19.5q-47 -25 -92 -52.5t-92 -51.5q-84 -51 -161 -93.5t-142 -70.5q-39 -18 -79 -18.5 t-77 14t-66.5 42t-45.5 66.5q-18 39 -18.5 79z" />
<glyph unicode="&#xff;" horiz-adv-x="1089" d="M-225 389q0 49 21.5 93t58.5 79q10 10 37.5 39t50.5 57l41 45q29 31 58.5 63t57.5 60q33 29 57.5 49.5t43.5 32.5q106 66 221 41q119 -31 158 -133l-2 2q8 -18 13 -35.5t7 -36.5q29 31 51.5 58.5t40.5 50.5l29 33q4 4 6 8q2 2 4 6q47 55 111.5 79t130.5 7q45 -12 83 -45 t62 -76q29 -66 26 -111.5t-7 -62.5q-2 -10 -5.5 -19t-5.5 -18l-12 -39l-2 -6q41 -4 81 -22.5t69 -50.5q27 -33 40 -72t13 -76q0 -102 -84 -174l-10 -10q-43 -37 -91.5 -74t-101.5 -70q-121 -72 -238 -71q-49 0 -98 14q-37 8 -68.5 27.5t-54.5 48.5q-25 -20 -47 -37.5 t-51 -36.5h2q-47 -33 -90 -55.5t-82 -38.5q-35 -14 -73.5 -20.5t-73.5 -6.5q-23 0 -42.5 1t-29.5 3q-57 16 -102.5 52t-67.5 88q-14 29 -18.5 52t-4.5 48q0 33 7 64l-39 26t-31 31q-49 66 -49 139z" />
<glyph unicode="&#x152;" d="M-204.5 386q-0.5 40 14 77t42 66.5t66.5 45.5q47 23 115.5 61t146.5 83q90 53 189.5 109.5t195.5 97.5q109 53 203 71q66 16 122 18.5t109 -11.5q113 -33 154 -140q31 -78 9.5 -151.5t-56.5 -139.5q6 2 13 3.5t14 5.5q39 14 78.5 11t75.5 -19.5t63.5 -46t42.5 -68.5 q14 -41 12 -81t-18.5 -76t-46 -63.5t-70.5 -41.5q-96 -35 -176 -63t-142 -48q-86 -25 -139 -36t-96 -11q-29 0 -64 10q-51 12 -88 46t-55 81q-33 78 2 176q12 35 37 82q4 8 9 17.5t11 19.5q-47 -25 -92 -52.5t-92 -51.5q-84 -51 -161 -93.5t-142 -70.5q-39 -18 -79 -18.5 t-77 14t-66.5 42t-45.5 66.5q-18 39 -18.5 79z" />
<glyph unicode="&#x153;" d="M-204.5 386q-0.5 40 14 77t42 66.5t66.5 45.5q47 23 115.5 61t146.5 83q90 53 189.5 109.5t195.5 97.5q109 53 203 71q66 16 122 18.5t109 -11.5q113 -33 154 -140q31 -78 9.5 -151.5t-56.5 -139.5q6 2 13 3.5t14 5.5q39 14 78.5 11t75.5 -19.5t63.5 -46t42.5 -68.5 q14 -41 12 -81t-18.5 -76t-46 -63.5t-70.5 -41.5q-96 -35 -176 -63t-142 -48q-86 -25 -139 -36t-96 -11q-29 0 -64 10q-51 12 -88 46t-55 81q-33 78 2 176q12 35 37 82q4 8 9 17.5t11 19.5q-47 -25 -92 -52.5t-92 -51.5q-84 -51 -161 -93.5t-142 -70.5q-39 -18 -79 -18.5 t-77 14t-66.5 42t-45.5 66.5q-18 39 -18.5 79z" />
<glyph unicode="&#x178;" horiz-adv-x="796" d="M-203.5 397q2.5 41 19 77t46 64.5t68.5 43.5q35 12 118 59t226 162q43 35 79 65.5t63 55.5q31 29 57 53q84 80 197 51q41 -10 73.5 -36.5t53.5 -61.5q33 -57 28.5 -116.5t-22.5 -137.5q-4 -20 -9.5 -40t-11.5 -42q66 4 121 -29t84 -94q16 -39 16.5 -79t-13 -76.5 t-41 -66.5t-66.5 -46q-68 -31 -124.5 -58.5t-98.5 -50t-66.5 -36t-26.5 -13.5q-49 -27 -98 -27q-76 0 -129 45q-49 39 -67.5 98.5t-2.5 119.5q0 2 2 6t2 6t2 6q-113 -68 -204 -102q-39 -14 -80 -12.5t-76 18t-63.5 46.5t-42.5 68q-16 39 -13.5 80z" />
<glyph unicode="&#x2c6;" horiz-adv-x="798" d="M-204 399q3 41 19.5 76t45 63.5t69.5 43.5q6 2 23.5 10t50.5 29.5t82 60.5t121 100q41 37 76.5 70t62.5 57.5t42 40t18 15.5q39 39 91 53t105 -2q88 -23 127 -103q12 -23 21.5 -63.5t-7.5 -93.5q0 -4 -2 -5t-2 -6q-2 -4 -3 -10t-3 -10q-4 -14 -11 -30.5t-15 -39.5 t-17.5 -49t-21.5 -55l8 4t8 6q35 23 75 30t77.5 -1t71.5 -30.5t57 -57.5q25 -35 32 -76t-1.5 -79t-31 -72.5t-57.5 -57.5q-49 -33 -93 -64.5t-89 -66.5q-51 -39 -95 -71.5t-89 -57.5q-33 -18 -61.5 -29.5t-57.5 -19.5q-45 -10 -82 -10t-78 10q-43 10 -77.5 37.5t-53.5 66.5 q-14 27 -19.5 51.5t-5.5 46t2.5 38t4.5 26.5t4 21.5t6 23.5q-14 -8 -26.5 -13t-26.5 -9q-35 -12 -70 -13q-63 0 -116.5 36t-76.5 99q-14 39 -11 80z" />
<glyph unicode="&#x2dc;" d="M-204.5 386q-0.5 40 14 77t42 66.5t66.5 45.5q47 23 115.5 61t146.5 83q90 53 189.5 109.5t195.5 97.5q109 53 203 71q66 16 122 18.5t109 -11.5q113 -33 154 -140q31 -78 9.5 -151.5t-56.5 -139.5q6 2 13 3.5t14 5.5q39 14 78.5 11t75.5 -19.5t63.5 -46t42.5 -68.5 q14 -41 12 -81t-18.5 -76t-46 -63.5t-70.5 -41.5q-96 -35 -176 -63t-142 -48q-86 -25 -139 -36t-96 -11q-29 0 -64 10q-51 12 -88 46t-55 81q-33 78 2 176q12 35 37 82q4 8 9 17.5t11 19.5q-47 -25 -92 -52.5t-92 -51.5q-84 -51 -161 -93.5t-142 -70.5q-39 -18 -79 -18.5 t-77 14t-66.5 42t-45.5 66.5q-18 39 -18.5 79z" />
<glyph unicode="&#x2000;" horiz-adv-x="682" />
<glyph unicode="&#x2001;" horiz-adv-x="1365" />
<glyph unicode="&#x2002;" horiz-adv-x="682" />
<glyph unicode="&#x2003;" horiz-adv-x="1365" />
<glyph unicode="&#x2004;" horiz-adv-x="455" />
<glyph unicode="&#x2005;" horiz-adv-x="341" />
<glyph unicode="&#x2006;" horiz-adv-x="227" />
<glyph unicode="&#x2007;" horiz-adv-x="227" />
<glyph unicode="&#x2008;" horiz-adv-x="170" />
<glyph unicode="&#x2009;" horiz-adv-x="273" />
<glyph unicode="&#x200a;" horiz-adv-x="75" />
<glyph unicode="&#x2010;" horiz-adv-x="491" />
<glyph unicode="&#x2011;" horiz-adv-x="491" />
<glyph unicode="&#x2012;" horiz-adv-x="491" />
<glyph unicode="&#x2013;" horiz-adv-x="1089" d="M-225 389q0 49 21.5 93t58.5 79q10 10 37.5 39t50.5 57l41 45q29 31 58.5 63t57.5 60q33 29 57.5 49.5t43.5 32.5q106 66 221 41q119 -31 158 -133l-2 2q8 -18 13 -35.5t7 -36.5q29 31 51.5 58.5t40.5 50.5l29 33q4 4 6 8q2 2 4 6q47 55 111.5 79t130.5 7q45 -12 83 -45 t62 -76q29 -66 26 -111.5t-7 -62.5q-2 -10 -5.5 -19t-5.5 -18l-12 -39l-2 -6q41 -4 81 -22.5t69 -50.5q27 -33 40 -72t13 -76q0 -102 -84 -174l-10 -10q-43 -37 -91.5 -74t-101.5 -70q-121 -72 -238 -71q-49 0 -98 14q-37 8 -68.5 27.5t-54.5 48.5q-25 -20 -47 -37.5 t-51 -36.5h2q-47 -33 -90 -55.5t-82 -38.5q-35 -14 -73.5 -20.5t-73.5 -6.5q-23 0 -42.5 1t-29.5 3q-57 16 -102.5 52t-67.5 88q-14 29 -18.5 52t-4.5 48q0 33 7 64l-39 26t-31 31q-49 66 -49 139z" />
<glyph unicode="&#x2014;" horiz-adv-x="1089" d="M-225 389q0 49 21.5 93t58.5 79q10 10 37.5 39t50.5 57l41 45q29 31 58.5 63t57.5 60q33 29 57.5 49.5t43.5 32.5q106 66 221 41q119 -31 158 -133l-2 2q8 -18 13 -35.5t7 -36.5q29 31 51.5 58.5t40.5 50.5l29 33q4 4 6 8q2 2 4 6q47 55 111.5 79t130.5 7q45 -12 83 -45 t62 -76q29 -66 26 -111.5t-7 -62.5q-2 -10 -5.5 -19t-5.5 -18l-12 -39l-2 -6q41 -4 81 -22.5t69 -50.5q27 -33 40 -72t13 -76q0 -102 -84 -174l-10 -10q-43 -37 -91.5 -74t-101.5 -70q-121 -72 -238 -71q-49 0 -98 14q-37 8 -68.5 27.5t-54.5 48.5q-25 -20 -47 -37.5 t-51 -36.5h2q-47 -33 -90 -55.5t-82 -38.5q-35 -14 -73.5 -20.5t-73.5 -6.5q-23 0 -42.5 1t-29.5 3q-57 16 -102.5 52t-67.5 88q-14 29 -18.5 52t-4.5 48q0 33 7 64l-39 26t-31 31q-49 66 -49 139z" />
<glyph unicode="&#x2018;" horiz-adv-x="1089" d="M-225 389q0 49 21.5 93t58.5 79q10 10 37.5 39t50.5 57l41 45q29 31 58.5 63t57.5 60q33 29 57.5 49.5t43.5 32.5q106 66 221 41q119 -31 158 -133l-2 2q8 -18 13 -35.5t7 -36.5q29 31 51.5 58.5t40.5 50.5l29 33q4 4 6 8q2 2 4 6q47 55 111.5 79t130.5 7q45 -12 83 -45 t62 -76q29 -66 26 -111.5t-7 -62.5q-2 -10 -5.5 -19t-5.5 -18l-12 -39l-2 -6q41 -4 81 -22.5t69 -50.5q27 -33 40 -72t13 -76q0 -102 -84 -174l-10 -10q-43 -37 -91.5 -74t-101.5 -70q-121 -72 -238 -71q-49 0 -98 14q-37 8 -68.5 27.5t-54.5 48.5q-25 -20 -47 -37.5 t-51 -36.5h2q-47 -33 -90 -55.5t-82 -38.5q-35 -14 -73.5 -20.5t-73.5 -6.5q-23 0 -42.5 1t-29.5 3q-57 16 -102.5 52t-67.5 88q-14 29 -18.5 52t-4.5 48q0 33 7 64l-39 26t-31 31q-49 66 -49 139z" />
<glyph unicode="&#x2019;" horiz-adv-x="563" d="M-204 402q3 40 20.5 76t48.5 65q23 18 48.5 42.5t53.5 53.5q49 49 103.5 99t105.5 91q35 27 66.5 47.5t60.5 34.5q106 51 209 29q55 -16 97 -55t65 -94q29 -82 -2 -173q-4 -10 -8.5 -20t-10.5 -23q74 -35 107 -114q14 -41 12 -82t-18.5 -77t-46 -63.5t-70.5 -41.5 q-66 -25 -118 -44.5t-89 -31.5q-23 -8 -39 -14.5t-26 -10.5q-20 -4 -43 -10t-50 -6q-25 0 -55 6q-47 12 -84 42t-59 71q-57 -23 -120 -9.5t-108 64.5q-29 31 -41 69.5t-9 78.5z" />
<glyph unicode="&#x201a;" horiz-adv-x="563" d="M-204 402q3 40 20.5 76t48.5 65q23 18 48.5 42.5t53.5 53.5q49 49 103.5 99t105.5 91q35 27 66.5 47.5t60.5 34.5q106 51 209 29q55 -16 97 -55t65 -94q29 -82 -2 -173q-4 -10 -8.5 -20t-10.5 -23q74 -35 107 -114q14 -41 12 -82t-18.5 -77t-46 -63.5t-70.5 -41.5 q-66 -25 -118 -44.5t-89 -31.5q-23 -8 -39 -14.5t-26 -10.5q-20 -4 -43 -10t-50 -6q-25 0 -55 6q-47 12 -84 42t-59 71q-57 -23 -120 -9.5t-108 64.5q-29 31 -41 69.5t-9 78.5z" />
<glyph unicode="&#x201c;" horiz-adv-x="563" d="M-204 402q3 40 20.5 76t48.5 65q23 18 48.5 42.5t53.5 53.5q49 49 103.5 99t105.5 91q35 27 66.5 47.5t60.5 34.5q106 51 209 29q55 -16 97 -55t65 -94q29 -82 -2 -173q-4 -10 -8.5 -20t-10.5 -23q74 -35 107 -114q14 -41 12 -82t-18.5 -77t-46 -63.5t-70.5 -41.5 q-66 -25 -118 -44.5t-89 -31.5q-23 -8 -39 -14.5t-26 -10.5q-20 -4 -43 -10t-50 -6q-25 0 -55 6q-47 12 -84 42t-59 71q-57 -23 -120 -9.5t-108 64.5q-29 31 -41 69.5t-9 78.5z" />
<glyph unicode="&#x201d;" horiz-adv-x="563" d="M-204 402q3 40 20.5 76t48.5 65q23 18 48.5 42.5t53.5 53.5q49 49 103.5 99t105.5 91q35 27 66.5 47.5t60.5 34.5q106 51 209 29q55 -16 97 -55t65 -94q29 -82 -2 -173q-4 -10 -8.5 -20t-10.5 -23q74 -35 107 -114q14 -41 12 -82t-18.5 -77t-46 -63.5t-70.5 -41.5 q-66 -25 -118 -44.5t-89 -31.5q-23 -8 -39 -14.5t-26 -10.5q-20 -4 -43 -10t-50 -6q-25 0 -55 6q-47 12 -84 42t-59 71q-57 -23 -120 -9.5t-108 64.5q-29 31 -41 69.5t-9 78.5z" />
<glyph unicode="&#x201e;" horiz-adv-x="563" d="M-204 402q3 40 20.5 76t48.5 65q23 18 48.5 42.5t53.5 53.5q49 49 103.5 99t105.5 91q35 27 66.5 47.5t60.5 34.5q106 51 209 29q55 -16 97 -55t65 -94q29 -82 -2 -173q-4 -10 -8.5 -20t-10.5 -23q74 -35 107 -114q14 -41 12 -82t-18.5 -77t-46 -63.5t-70.5 -41.5 q-66 -25 -118 -44.5t-89 -31.5q-23 -8 -39 -14.5t-26 -10.5q-20 -4 -43 -10t-50 -6q-25 0 -55 6q-47 12 -84 42t-59 71q-57 -23 -120 -9.5t-108 64.5q-29 31 -41 69.5t-9 78.5z" />
<glyph unicode="&#x2022;" horiz-adv-x="1705" />
<glyph unicode="&#x2026;" horiz-adv-x="1474" />
<glyph unicode="&#x202f;" horiz-adv-x="273" />
<glyph unicode="&#x2039;" d="M-204.5 386q-0.5 40 14 77t42 66.5t66.5 45.5q47 23 115.5 61t146.5 83q90 53 189.5 109.5t195.5 97.5q109 53 203 71q66 16 122 18.5t109 -11.5q113 -33 154 -140q31 -78 9.5 -151.5t-56.5 -139.5q6 2 13 3.5t14 5.5q39 14 78.5 11t75.5 -19.5t63.5 -46t42.5 -68.5 q14 -41 12 -81t-18.5 -76t-46 -63.5t-70.5 -41.5q-96 -35 -176 -63t-142 -48q-86 -25 -139 -36t-96 -11q-29 0 -64 10q-51 12 -88 46t-55 81q-33 78 2 176q12 35 37 82q4 8 9 17.5t11 19.5q-47 -25 -92 -52.5t-92 -51.5q-84 -51 -161 -93.5t-142 -70.5q-39 -18 -79 -18.5 t-77 14t-66.5 42t-45.5 66.5q-18 39 -18.5 79z" />
<glyph unicode="&#x203a;" d="M-204.5 386q-0.5 40 14 77t42 66.5t66.5 45.5q47 23 115.5 61t146.5 83q90 53 189.5 109.5t195.5 97.5q109 53 203 71q66 16 122 18.5t109 -11.5q113 -33 154 -140q31 -78 9.5 -151.5t-56.5 -139.5q6 2 13 3.5t14 5.5q39 14 78.5 11t75.5 -19.5t63.5 -46t42.5 -68.5 q14 -41 12 -81t-18.5 -76t-46 -63.5t-70.5 -41.5q-96 -35 -176 -63t-142 -48q-86 -25 -139 -36t-96 -11q-29 0 -64 10q-51 12 -88 46t-55 81q-33 78 2 176q12 35 37 82q4 8 9 17.5t11 19.5q-47 -25 -92 -52.5t-92 -51.5q-84 -51 -161 -93.5t-142 -70.5q-39 -18 -79 -18.5 t-77 14t-66.5 42t-45.5 66.5q-18 39 -18.5 79z" />
<glyph unicode="&#x205f;" horiz-adv-x="341" />
<glyph unicode="&#x20ac;" d="M-204.5 386q-0.5 40 14 77t42 66.5t66.5 45.5q47 23 115.5 61t146.5 83q90 53 189.5 109.5t195.5 97.5q109 53 203 71q66 16 122 18.5t109 -11.5q113 -33 154 -140q31 -78 9.5 -151.5t-56.5 -139.5q6 2 13 3.5t14 5.5q39 14 78.5 11t75.5 -19.5t63.5 -46t42.5 -68.5 q14 -41 12 -81t-18.5 -76t-46 -63.5t-70.5 -41.5q-96 -35 -176 -63t-142 -48q-86 -25 -139 -36t-96 -11q-29 0 -64 10q-51 12 -88 46t-55 81q-33 78 2 176q12 35 37 82q4 8 9 17.5t11 19.5q-47 -25 -92 -52.5t-92 -51.5q-84 -51 -161 -93.5t-142 -70.5q-39 -18 -79 -18.5 t-77 14t-66.5 42t-45.5 66.5q-18 39 -18.5 79z" />
<glyph unicode="&#x2122;" horiz-adv-x="798" d="M-204 399q3 41 19.5 76t45 63.5t69.5 43.5q6 2 23.5 10t50.5 29.5t82 60.5t121 100q41 37 76.5 70t62.5 57.5t42 40t18 15.5q39 39 91 53t105 -2q88 -23 127 -103q12 -23 21.5 -63.5t-7.5 -93.5q0 -4 -2 -5t-2 -6q-2 -4 -3 -10t-3 -10q-4 -14 -11 -30.5t-15 -39.5 t-17.5 -49t-21.5 -55l8 4t8 6q35 23 75 30t77.5 -1t71.5 -30.5t57 -57.5q25 -35 32 -76t-1.5 -79t-31 -72.5t-57.5 -57.5q-49 -33 -93 -64.5t-89 -66.5q-51 -39 -95 -71.5t-89 -57.5q-33 -18 -61.5 -29.5t-57.5 -19.5q-45 -10 -82 -10t-78 10q-43 10 -77.5 37.5t-53.5 66.5 q-14 27 -19.5 51.5t-5.5 46t2.5 38t4.5 26.5t4 21.5t6 23.5q-14 -8 -26.5 -13t-26.5 -9q-35 -12 -70 -13q-63 0 -116.5 36t-76.5 99q-14 39 -11 80z" />
<glyph unicode="&#xe000;" horiz-adv-x="1024" d="M0 0v1024h1024v-1024h-1024z" />
<glyph unicode="&#xfb01;" horiz-adv-x="563" d="M-204 402q3 40 20.5 76t48.5 65q23 18 48.5 42.5t53.5 53.5q49 49 103.5 99t105.5 91q35 27 66.5 47.5t60.5 34.5q106 51 209 29q55 -16 97 -55t65 -94q29 -82 -2 -173q-4 -10 -8.5 -20t-10.5 -23q74 -35 107 -114q14 -41 12 -82t-18.5 -77t-46 -63.5t-70.5 -41.5 q-66 -25 -118 -44.5t-89 -31.5q-23 -8 -39 -14.5t-26 -10.5q-20 -4 -43 -10t-50 -6q-25 0 -55 6q-47 12 -84 42t-59 71q-57 -23 -120 -9.5t-108 64.5q-29 31 -41 69.5t-9 78.5z" />
<glyph unicode="&#xfb02;" horiz-adv-x="563" d="M-204 402q3 40 20.5 76t48.5 65q23 18 48.5 42.5t53.5 53.5q49 49 103.5 99t105.5 91q35 27 66.5 47.5t60.5 34.5q106 51 209 29q55 -16 97 -55t65 -94q29 -82 -2 -173q-4 -10 -8.5 -20t-10.5 -23q74 -35 107 -114q14 -41 12 -82t-18.5 -77t-46 -63.5t-70.5 -41.5 q-66 -25 -118 -44.5t-89 -31.5q-23 -8 -39 -14.5t-26 -10.5q-20 -4 -43 -10t-50 -6q-25 0 -55 6q-47 12 -84 42t-59 71q-57 -23 -120 -9.5t-108 64.5q-29 31 -41 69.5t-9 78.5z" />
</font>
</defs>
</svg>
